2 сезон

iTunes

1 сезон

1

iTunes

iTunes

iTunes

1 сезон

RePack

30

ИГРА 18+

pack

ВАЖНО

!!Акция!!

Alien_RageХит недели

RePack

MK11
pack

Забери бонус

RePack

jed

!!Акция!!

Alien_Rage

RePack

fifa19

RePack

Assassins Creed: Odyssey

RePack

NEED FOR SPEED™ PAYBACK

4 сезон

9 сезон

Бесстыжие 9 сезон

Все сериалы

все сериалы на PB.wtf

RePack

FAR CRY 5
  

Убойные каникулы / Tucker and Dale vs. Evil (Эли Крэйг) [2010, ужасы, комедия, BDRip 1080p] DUB Лицензия pb.wtf

Убойные каникулы через торрент pb.wtf

Раздают: 1 [ 0 KB/s ]
Размер: 7.95 GB | Добавлен: 5 лет 3 мес. назад | Торрент скачан:756 раз
Скачать  

21-07-2015 19:46 Убойные каникулы Скачать торрент  


Убойные каникулы / Tucker and Dale vs. Evil
««Куча жертв... ни одного маньяка»»

ИНФОРМАЦИЯ:
Год выпуска:2010
Страна: Канада, США, Индия, Великобритания
Жанр: ужасы, комедия
Продолжительность: 01:28:39
Перевод: Дубляж - [Лицензия]
Субтитры: русские (Русские (полные)),
Режиссер: Эли Крэйг

В Ролях:


Тайлер Лабин (Dale), Алан Тьюдик (Tucker), Катрина Боуден (Allison), Джесси Мосс (Chad), Филип Грэйнджер (Sheriff), Брэндон Джей МакЛарен (Jason), Кристи Лэйн (Naomi), Челан Симмонс (Chloe), Трэвис Нельсон (Chuck), Алекс Арсено (Todd), Адам Бошен (Mitch), Джозеф Аллан Сазерленд (Mike)

Описание:
Группа студентов колледжа отправляется за город, чтобы вовсю оторваться на выходных: попить пивка, поплавать в озере и подышать чистым лесным воздухом. Но уже в первый день они сталкиваются с неотесанными фермерами Такером и Дэйлом, также решившими как следует оттянуться на природе. Приняв этих диковатых, но, в сущности, симпатичных ребят за «злобных местных», горожане решают дать деревенщине жесткий отпор. Но с каждым их шагом становится только хуже...

  • Мировая премьера:9 декабря 2010

    ТЕХ.ДАННЫЕ:
    Качество: BDRip 1080p
    Формат: MKV
    Видео кодек: AVC
    Аудио кодек: AC3
    Видео: AVC, 1920x816 (2.35:1), 11553 kbps, 23,976 fps, 0,308 bpp
    Аудио №1: русский / AC3 / 5.1 / 48 kHz / 640 kbps / 16 bit ||
    Аудио №2: английский / AC3 / 5.1 / 48 kHz / 640 kbps / 16 bit
    Навигация по главам: есть


    Код:

    General
    Unique ID                                : 220620268873995933151598533059970467683 (0xA5F9EB1039859F069E5A8F409DFA0763)
    Complete name                            : D:\Торенты\Ubojnye kanikuly.(2010).BDRip.1080p.(DVD9).[NoLimits-Team].mkv
    Format                                   : Matroska
    Format version                           : Version 4 / Version 2
    File size                                : 7.95 GiB
    Duration                                 : 1h 28mn
    Overall bit rate                         : 12.8 Mbps
    Movie name                               : Убойные каникулы.(2010).BDRip.1080p.(DVD9).[NoLimits-Team]
    Encoded date                             : UTC 2013-06-14 15:19:52
    Writing application                      : mkvmerge v6.0.0 ('Coming Up For Air') built on Jan 20 2013 09:52:00
    Writing library                          : libebml v1.3.0 + libmatroska v1.4.0

    Video
    ID                                       : 1
    Format                                   : AVC
    Format/Info                              : Advanced Video Codec
    Format profile                           : High@L4.1
    Format settings, CABAC                   : Yes
    Format settings, ReFrames                : 5 frames
    Codec ID                                 : V_MPEG4/ISO/AVC
    Duration                                 : 1h 28mn
    Bit rate                                 : 11.6 Mbps
    Width                                    : 1 920 pixels
    Height                                   : 816 pixels
    Display aspect ratio                     : 2.35:1
    Frame rate                               : 23.976 fps
    Color space                              : YUV
    Chroma subsampling                       : 4:2:0
    Bit depth                                : 8 bits
    Scan type                                : Progressive
    Bits/(Pixel*Frame)                       : 0.308
    Stream size                              : 7.00 GiB (88%)
    Title                                    : Убойные каникулы.(2010).BDRip.1080p.(DVD9).[NoLimits-Team]
    Writing library                          : x264 core 133 r2334 a3ac64b
    Encoding settings                        : cabac=1 / ref=5 / deblock=1:0:0 / analyse=0x3:0x113 / me=umh / subme=11 / psy=1 / psy_rd=1.00:0.00 / mixed_ref=1 / me_range=64 / chroma_me=1 / trellis=2 / 8x8dct=1 / cqm=0 / deadzone=21,11 / fast_pskip=0 / chroma_qp_offset=-2 / threads=9 / lookahead_threads=2 / sliced_threads=0 / nr=0 / decimate=1 / interlaced=0 / bluray_compat=0 / constrained_intra=0 / bframes=12 / b_pyramid=2 / b_adapt=2 / b_bias=0 / direct=3 / weightb=1 / open_gop=0 / weightp=2 / keyint=240 / keyint_min=23 / scenecut=40 / intra_refresh=0 / rc_lookahead=60 / rc=2pass / mbtree=1 / bitrate=11553 / ratetol=2.0 / qcomp=0.60 / qpmin=0 / qpmax=51 / qpstep=4 / cplxblur=20.0 / qblur=0.5 / ip_ratio=1.40 / aq=1:1.00
    Language                                 : English
    Default                                  : Yes
    Forced                                   : No

    Audio #1
    ID                                       : 2
    Format                                   : AC-3
    Format/Info                              : Audio Coding 3
    Mode extension                           : CM (complete main)
    Codec ID                                 : A_AC3
    Duration                                 : 1h 28mn
    Bit rate mode                            : Constant
    Bit rate                                 : 640 Kbps
    Channel(s)                               : 6 channels
    Channel positions                        : Front: L C R, Side: L R, LFE
    Sampling rate                            : 48.0 KHz
    Bit depth                                : 16 bits
    Compression mode                         : Lossy
    Stream size                              : 406 MiB (5%)
    Title                                    : Дублированный
    Language                                 : Russian
    Default                                  : Yes
    Forced                                   : No

    Audio #2
    ID                                       : 3
    Format                                   : AC-3
    Format/Info                              : Audio Coding 3
    Mode extension                           : CM (complete main)
    Codec ID                                 : A_AC3
    Duration                                 : 1h 28mn
    Bit rate mode                            : Constant
    Bit rate                                 : 640 Kbps
    Channel(s)                               : 6 channels
    Channel positions                        : Front: L C R, Side: L R, LFE
    Sampling rate                            : 48.0 KHz
    Bit depth                                : 16 bits
    Compression mode                         : Lossy
    Stream size                              : 406 MiB (5%)
    Title                                    : Английский / Оригинал
    Language                                 : English
    Default                                  : No
    Forced                                   : No

    Text
    ID                                       : 4
    Format                                   : UTF-8
    Codec ID                                 : S_TEXT/UTF8
    Codec ID/Info                            : UTF-8 Plain Text
    Title                                    : Русские (полные)
    Language                                 : Russian
    Default                                  : No
    Forced                                   : No

    Menu
    00:00:00.000                             : :Chapter 01
    00:10:48.439                             : :Chapter 02
    00:18:57.845                             : :Chapter 03
    00:30:29.410                             : :Chapter 04
    00:37:55.731                             : :Chapter 05
    00:45:39.902                             : :Chapter 06
    00:54:46.408                             : :Chapter 07
    01:02:39.338                             : :Chapter 08
    01:10:58.128                             : :Chapter 09
    01:23:00.183                             : :Chapter 10

    Скриншоты:


    © Оформление by Ворон
    pb.wtf



  • Скачать Убойные каникулы через торрент http://pic.kartinco.top/images/6/ordi9.jpg Скачать фильм Убойные каникулы через торрент бесплантно в хорошем качестве Описание: Группа студентов колледжа отправляется за город, чтобы вовсю оторваться на выходных: попить пивка, поплавать в озере и подышать ... 9.7 10 27
    Info! Золотая раздача, скачанное не засчитывается.
    Торрент: Зарегистрирован [2015-07-21 19:46] · скачан: 756 раз
    Статус: √ проверено
    Размер: 7.95 GB
    Как cкачать? Как скачать Убойные каникулы через торрент | qTorrent

    % Раздел Тема Автор DL S | L
    Фильмы (Blu-ray, BD-Remux, HDDVD) [ 18.06 GB ] Убойные каникулы / Tucker and Dale vs. Evil [2010 BD Remux] DUB Ворон Скачать
    1 | 0

    28-11-2019 20:33  

    Отключить всю рекламу на сайте

    21-07-2015 19:47 Убойные каникулы Скачать торрент  

    Одна из моих любимых комедий, рекомендую. pb.wtf



    21-07-2015 21:22 Убойные каникулы Скачать торрент  

    свыше согласен вообще ништяк побольше бы таких комедийpb.wtf



    22-07-2015 18:30 Убойные каникулы Скачать торрент  

    Троекратное "ДА!"

    В коллекции давно. В 60 кадрах можно теперь только заменить.pb.wtf



    19-05-2016 22:11 Убойные каникулы Скачать торрент  

    Ворон, спасибо шикарная вещь забрал pb.wtf



    10-04-2017 16:03 Убойные каникулы Скачать торрент  

    Спасибо.pb.wtf



      Дорогой пользователь! Огромная просьба, поблагодарите релизера, оцените раздачу и оставьте свои комментарий, если Вы скачали Убойные каникулы через торрент бесплатно! Внесите свою лепту в развитие PiratBit!
      Комментировать посты могут только пользователи прошедшие не сложную регистрацию
      Показать сообщения:    

      Убойные каникулы через торрент
      Скачать бесплатно Убойные каникулы
      Убойные каникулы скачать торрент
      Убойные каникулы смотреть онлайн
      Cкачать фильм Убойные каникулы бесплатно
      Убойные каникулы скачать торрент в хорошем качестве
      Убойные каникулы смотреть онлайн бесплатно в хорошем качестве


      Вы не можете начинать темы
      Вы не можете отвечать на сообщения
      Вы не можете редактировать свои сообщения
      Вы не можете удалять свои сообщения
      Вы не можете голосовать в опросах
      Вы не можете прикреплять файлы к сообщениям
      Вы можете скачивать файлы