Ссылка на приватное зеркало нашего сайта всего за 1$. Внимание количество ограничено!!!

2 сезон

iTunes

1 сезон

1

2 сезон

2 сезон

iTunes

1 сезон

RePack

30

Ultimate

ВАЖНО

ИГРА 18+

pack

RePack

MK11
pack

Забери бонус

RePack

jed

!!Акция!!

Alien_Rage

RePack

fifa19

RePack

Assassins Creed: Odyssey

RePack

NEED FOR SPEED™ PAYBACK

4 сезон

9 сезон

Бесстыжие 9 сезон

Все сериалы

все сериалы на PB.wtf

RePack

FAR CRY 5
  

Французская сюита / Suite française (Сол Дибб) [2014, драма, мелодрама, военный, BDRip 720p, Любительский многоголосый [ColdFilm] pb.wtf

Французская сюита через торрент pb.wtf

Размер: 5.37 GB | Добавлен: 5 лет 4 мес. назад | Торрент скачан:68 раз
Скачать  

22-07-2015 06:21 Французская сюита Скачать торрент  


Французская сюита / Suite française


ИНФОРМАЦИЯ:
Год выпуска:2014
Страна: Великобритания, Франция, Канада, Бельгия
Жанр: драма, мелодрама, военный
Продолжительность: 01:47:57
Перевод: Любительский многоголосый [ColdFilm]
Субтитры: английские,
Режиссер: Сол Дибб

В Ролях:


Мишель Уильямс (Lucile Angellier), Маттиас Шонартс (Lieutenant Bruno von Falk), Кристин Скотт Томас (Madame Angellier), Марго Робби (Celine Joseph), Эрик Годон (Monsieur Joseph), Дебора Файндлей (Madame Joseph), Рут Уилсон (Madeleine Labarie), Сэм Райли (Benoit Labarie), Vincent Doms (Young Priest), Саймон Даттон (Maurice Michaud), Дайана Кент (Madame Michaud), Темис Повель (Anna)

Описание:
В центре романтической истории времён Второй мировой войны - молодая девушка, живущая вместе со свекровью в оккупированной фашистами Франции. Нелюбимый муж ушёл на поле боя, и героиня влюбляется в немецкого офицера. Их объединяет любовь к музыке: она играет на фортепиано, а немец - бывший композитор.

  • Мировая премьера:5 ноября 2014

    ТЕХ.ДАННЫЕ:
    Качество: BDRip 720p
    Формат: MKV
    Видео кодек: AVC
    Аудио кодек: AC3, DTS
    Видео: AVC, 1280x536 (2.40:1), 5500 kbps, 24 fps, 0,334 bpp
    Аудио №1: русский / AC3 / 2.0 / 48 kHz / 192 kbps / 16 bit ||
    Аудио №2: английский / DTS / 5.1 / 48 kHz / 1510 kbps / 24 bit
    Навигация по главам: есть


    Код:

    General
    Unique ID                                : 207250071682421728945401437115642404235 (0x9BEAE97278E4802AA38DEF8399A9DD8B)
    Complete name                            : D:\Торенты\FPaHcu3CKaya.C1u1ta.2014.L2.BDRip.720p.mkv
    Format                                   : Matroska
    Format version                           : Version 4 / Version 2
    File size                                : 5.37 GiB
    Duration                                 : 1h 47mn
    Overall bit rate                         : 7 128 Kbps
    Movie name                               : RARBG.COM - Suite.Francaise.2014.720p.BluRay.x264.DTS-RARBG
    Encoded date                             : UTC 2015-07-22 00:00:35
    Writing application                      : mkvmerge v7.2.0 ('On Every Street') 64bit built on Sep 13 2014 15:52:10
    Writing library                          : libebml v1.3.0 + libmatroska v1.4.1

    Video
    ID                                       : 1
    Format                                   : AVC
    Format/Info                              : Advanced Video Codec
    Format profile                           : High@L4.1
    Format settings, CABAC                   : Yes
    Format settings, ReFrames                : 4 frames
    Codec ID                                 : V_MPEG4/ISO/AVC
    Duration                                 : 1h 47mn
    Bit rate                                 : 5 500 Kbps
    Width                                    : 1 280 pixels
    Height                                   : 536 pixels
    Display aspect ratio                     : 2.40:1
    Frame rate mode                          : Variable
    Frame rate                               : 24.000 fps
    Color space                              : YUV
    Chroma subsampling                       : 4:2:0
    Bit depth                                : 8 bits
    Scan type                                : Progressive
    Bits/(Pixel*Frame)                       : 0.334
    Stream size                              : 3.98 GiB (74%)
    Title                                    : Suite.Francaise.2014.720p.BluRay.x264.DTS-RARBG
    Writing library                          : x264 core 144 r96 40bb568
    Encoding settings                        : cabac=1 / ref=4 / deblock=1:-2:-2 / analyse=0x3:0x113 / me=umh / subme=7 / psy=1 / psy_rd=1.00:0.15 / mixed_ref=1 / me_range=16 / chroma_me=1 / trellis=1 / 8x8dct=1 / cqm=0 / deadzone=21,11 / fast_pskip=1 / chroma_qp_offset=-3 / threads=12 / lookahead_threads=3 / sliced_threads=0 / nr=0 / decimate=1 / interlaced=0 / bluray_compat=0 / constrained_intra=0 / bframes=3 / b_pyramid=2 / b_adapt=2 / b_bias=0 / direct=3 / weightb=1 / open_gop=0 / weightp=2 / keyint=250 / keyint_min=25 / scenecut=40 / intra_refresh=0 / rc_lookahead=50 / rc=abr / mbtree=1 / bitrate=5500 / ratetol=1.0 / qcomp=0.60 / qpmin=0 / qpmax=69 / qpstep=4 / vbv_maxrate=31250 / vbv_bufsize=31250 / nal_hrd=none / filler=0 / ip_ratio=1.40 / aq=1:1.00
    Language                                 : English
    Default                                  : Yes
    Forced                                   : No

    Audio #1
    ID                                       : 2
    Format                                   : AC-3
    Format/Info                              : Audio Coding 3
    Mode extension                           : CM (complete main)
    Codec ID                                 : A_AC3
    Duration                                 : 1h 47mn
    Bit rate mode                            : Constant
    Bit rate                                 : 192 Kbps
    Channel(s)                               : 2 channels
    Channel positions                        : Front: L R
    Sampling rate                            : 48.0 KHz
    Bit depth                                : 16 bits
    Compression mode                         : Lossy
    Stream size                              : 148 MiB (3%)
    Language                                 : Russian
    Default                                  : Yes
    Forced                                   : No

    Audio #2
    ID                                       : 3
    Format                                   : DTS
    Format/Info                              : Digital Theater Systems
    Codec ID                                 : A_DTS
    Duration                                 : 1h 47mn
    Bit rate mode                            : Constant
    Bit rate                                 : 1 510 Kbps
    Channel(s)                               : 6 channels
    Channel positions                        : Front: L C R, Side: L R, LFE
    Sampling rate                            : 48.0 KHz
    Bit depth                                : 24 bits
    Compression mode                         : Lossy
    Stream size                              : 1.14 GiB (21%)
    Title                                    : Suite.Francaise.2014.720p.BluRay.x264.DTS-RARBG
    Language                                 : English
    Default                                  : No
    Forced                                   : No

    Text
    ID                                       : 4
    Format                                   : UTF-8
    Codec ID                                 : S_TEXT/UTF8
    Codec ID/Info                            : UTF-8 Plain Text
    Language                                 : English
    Default                                  : Yes
    Forced                                   : No

    Menu
    00:00:00.000                             : en:Chapter 01
    00:08:13.958                             : en:Chapter 02
    00:14:45.083                             : en:Chapter 03
    00:26:07.541                             : en:Chapter 04
    00:31:33.500                             : en:Chapter 05
    00:41:20.666                             : en:Chapter 06
    00:46:53.000                             : en:Chapter 07
    00:54:48.375                             : en:Chapter 08
    00:59:58.250                             : en:Chapter 09
    01:06:06.458                             : en:Chapter 10
    01:13:16.875                             : en:Chapter 11
    01:19:06.041                             : en:Chapter 12
    01:24:25.500                             : en:Chapter 13
    01:30:40.375                             : en:Chapter 14
    01:34:49.500                             : en:Chapter 15
    01:41:05.166                             : en:Chapter 16

    Скриншоты:


    © Оформление by Ворон
    pb.wtf



  • Скачать Французская сюита через торрент http://pic.kartinco.top/images/6/ordi9.jpg Скачать фильм Французская сюита через торрент бесплантно в хорошем качестве Описание: В центре романтической истории времён Второй мировой войны - молодая девушка, живущая вместе со свекровью в оккупированной ... 7.8 10 4
    Торрент: Зарегистрирован [2015-07-22 06:21] · скачан: 68 раз
    Статус: T временная
    Размер: 5.37 GB
    Как cкачать? Как скачать Французская сюита через торрент | qTorrent

    % Раздел Тема Автор DL S | L
    Фильмы 2014 [DVDrip, WEB-DLRip, HDrip] [ 1.46 GB ] Французская сюита / Suite française [2014 военный BDRip] MVO [ViP Premiere] bober100 Скачать
    1 | 0
    Фильмы 2014 (Звук TS, Cam, VO, DVO) [ 1.46 GB ] Французская сюита / Suite française [2014 военный BDRip Любительский [ColdFilm] Twi7ter Скачать
    1 | 0
    T Фильмы без перевода [ 1.3 GB ] Французская сюита / Suite Française [2014 военный WEBRip] [ENG] killermax2013 Скачать
    1 | 0

    28-11-2019 20:33  

    Отключить всю рекламу на сайте

    14-01-2016 20:19 Французская сюита Скачать торрент  

    Очень хочу посмотреть! Подкиньте раздачу, пожалуйста!pb.wtf



    14-01-2016 20:24 Французская сюита Скачать торрент  

    skymetrics, http://prntscr.com/9q5an3 качайте в чем проблема сиды есть по дтх
    ВНИМАНИЕ! нет сидов на раздаче? pb.wtf



      Дорогой пользователь! Огромная просьба, поблагодарите релизера, оцените раздачу и оставьте свои комментарий, если Вы скачали Французская сюита через торрент бесплатно! Внесите свою лепту в развитие PiratBit!
      Комментировать посты могут только пользователи прошедшие не сложную регистрацию
      Показать сообщения:    

      Французская сюита через торрент
      Скачать бесплатно Французская сюита
      Французская сюита скачать торрент
      Французская сюита смотреть онлайн
      Cкачать фильм Французская сюита бесплатно
      Французская сюита скачать торрент в хорошем качестве
      Французская сюита смотреть онлайн бесплатно в хорошем качестве


      Вы не можете начинать темы
      Вы не можете отвечать на сообщения
      Вы не можете редактировать свои сообщения
      Вы не можете удалять свои сообщения
      Вы не можете голосовать в опросах
      Вы не можете прикреплять файлы к сообщениям
      Вы можете скачивать файлы