Ссылка на приватное зеркало нашего сайта всего за 1$. Внимание количество ограничено!!!

2 сезон

iTunes

1 сезон

1

2 сезон

2 сезон

iTunes

1 сезон

RePack

30

Ultimate

ВАЖНО

ИГРА 18+

pack

RePack

MK11
pack

Забери бонус

RePack

jed

!!Акция!!

Alien_Rage

RePack

fifa19

RePack

Assassins Creed: Odyssey

RePack

NEED FOR SPEED™ PAYBACK

4 сезон

9 сезон

Бесстыжие 9 сезон

Все сериалы

все сериалы на PB.wtf

RePack

FAR CRY 5
  

Город, который боялся заката / The Town That Dreaded Sundown (Альфонсо Гомез-Рейон) [2014, ужасы, триллер, BDRip 720p, Любительский (двухголосый) [den904, DeadSno] pb.wtf

Город, который боялся заката через торрент pb.wtf

Размер: 4.6 GB | Добавлен: 5 лет 4 мес. назад | Торрент скачан:36 раз
Скачать  

22-07-2015 07:01 Город, который боялся заката Скачать торрент  


Город, который боялся заката / The Town That Dreaded Sundown


ИНФОРМАЦИЯ:
Год выпуска:2014
Страна: США
Жанр: ужасы, триллер
Продолжительность: 01:26:02
Перевод: Любительский (двухголосый) [den904, DeadSno]
Субтитры: английские, английские (SDH),
Режиссер: Альфонсо Гомез-Рейон

В Ролях:


Эддисон Тимлин (Jami), Вероника Картрайт (Lillian), Гэри Коул (Chief Deputy Tillman), Эдвард Херрманн (Reverend Cartwright), Джошуа Леонард (Deputy Foster), Дэнис О’Хэр (Charles B. Pierce, Jr.), Энтони Андерсон (Lone Wolf Morales), Трэвис Тоуп (Nick), Энди Абеле (Sackhead), Эд Лотер (Sheriff Underwood), Арабелла Филд (Dr. Kelly), Спенсер Трит Кларк (Corey)

Описание:
65 лет назад серийный убийца в маске терроризировал жителей небольшого города на западе США. И теперь так называемые «убийства в лунном свете» начинаются вновь. Кто за ними стоит? Подражатель, или что-то куда более зловещее? Одинокая школьница, хранящая свой собственный темный секрет, может стать ключом к пониманию происходящего...

  • Мировая премьера:20 сентября 2014

    ТЕХ.ДАННЫЕ:
    Качество: BDRip 720p
    Формат: MKV
    Видео кодек: AVC
    Аудио кодек: AC3, DTS
    Видео: AVC, 1280x536 (2.40:1), 5760 kbps, 23,976 fps, 0,350 bpp
    Аудио №1: русский / AC3 / 5.1 / 48 kHz / 384 kbps / 16 bit ||
    Аудио №2: английский / DTS / 5.1 / 48 kHz / 1510 kbps / 24 bit
    Навигация по главам: есть


    Код:

    General
    Unique ID                                : 220334272810949053715583828473643515944 (0xA5C2D65E69EABFC7AA4B1DEECDB3C028)
    Complete name                            : D:\Торенты\The.Town.That.Dreaded.Sundown.2014.L2.BDRip.720p.mkv
    Format                                   : Matroska
    Format version                           : Version 4 / Version 2
    File size                                : 4.60 GiB
    Duration                                 : 1h 26mn
    Overall bit rate                         : 7 655 Kbps
    Encoded date                             : UTC 2015-07-21 11:14:45
    Writing application                      : mkvmerge v6.5.0 ('Isn't she lovely') built on Oct 20 2013 12:50:05
    Writing library                          : libebml v1.3.0 + libmatroska v1.4.1

    Video
    ID                                       : 1
    Format                                   : AVC
    Format/Info                              : Advanced Video Codec
    Format profile                           : High@L4.1
    Format settings, CABAC                   : Yes
    Format settings, ReFrames                : 5 frames
    Codec ID                                 : V_MPEG4/ISO/AVC
    Duration                                 : 1h 26mn
    Bit rate                                 : 5 760 Kbps
    Width                                    : 1 280 pixels
    Height                                   : 536 pixels
    Display aspect ratio                     : 2.40:1
    Frame rate                               : 23.976 fps
    Color space                              : YUV
    Chroma subsampling                       : 4:2:0
    Bit depth                                : 8 bits
    Scan type                                : Progressive
    Bits/(Pixel*Frame)                       : 0.350
    Stream size                              : 3.37 GiB (73%)
    Writing library                          : x264 core 146 r2538 121396c
    Encoding settings                        : cabac=1 / ref=5 / deblock=1:-3:-3 / analyse=0x3:0x113 / me=umh / subme=8 / psy=1 / psy_rd=1.00:0.00 / mixed_ref=1 / me_range=16 / chroma_me=1 / trellis=1 / 8x8dct=1 / cqm=0 / deadzone=21,11 / fast_pskip=1 / chroma_qp_offset=-2 / threads=24 / lookahead_threads=4 / sliced_threads=0 / nr=0 / decimate=1 / interlaced=0 / bluray_compat=0 / constrained_intra=0 / bframes=3 / b_pyramid=2 / b_adapt=2 / b_bias=0 / direct=3 / weightb=1 / open_gop=0 / weightp=2 / keyint=240 / keyint_min=24 / scenecut=40 / intra_refresh=0 / rc_lookahead=50 / rc=2pass / mbtree=1 / bitrate=5760 / ratetol=1.0 / qcomp=0.60 / qpmin=0 / qpmax=69 / qpstep=4 / cplxblur=20.0 / qblur=0.5 / ip_ratio=1.40 / aq=1:1.00
    Language                                 : English
    Default                                  : Yes
    Forced                                   : No

    Audio #1
    ID                                       : 2
    Format                                   : AC-3
    Format/Info                              : Audio Coding 3
    Mode extension                           : CM (complete main)
    Codec ID                                 : A_AC3
    Duration                                 : 1h 26mn
    Bit rate mode                            : Constant
    Bit rate                                 : 384 Kbps
    Channel(s)                               : 6 channels
    Channel positions                        : Front: L C R, Side: L R, LFE
    Sampling rate                            : 48.0 KHz
    Bit depth                                : 16 bits
    Compression mode                         : Lossy
    Stream size                              : 236 MiB (5%)
    Language                                 : Russian
    Default                                  : Yes
    Forced                                   : No

    Audio #2
    ID                                       : 3
    Format                                   : DTS
    Format/Info                              : Digital Theater Systems
    Codec ID                                 : A_DTS
    Duration                                 : 1h 26mn
    Bit rate mode                            : Constant
    Bit rate                                 : 1 510 Kbps
    Channel(s)                               : 6 channels
    Channel positions                        : Front: L C R, Side: L R, LFE
    Sampling rate                            : 48.0 KHz
    Bit depth                                : 24 bits
    Compression mode                         : Lossy
    Stream size                              : 929 MiB (20%)
    Language                                 : English
    Default                                  : No
    Forced                                   : No

    Text #1
    ID                                       : 4
    Format                                   : UTF-8
    Codec ID                                 : S_TEXT/UTF8
    Codec ID/Info                            : UTF-8 Plain Text
    Language                                 : English
    Default                                  : No
    Forced                                   : No

    Text #2
    ID                                       : 5
    Format                                   : UTF-8
    Codec ID                                 : S_TEXT/UTF8
    Codec ID/Info                            : UTF-8 Plain Text
    Title                                    : SDH
    Language                                 : English
    Default                                  : No
    Forced                                   : No

    Menu
    00:00:00.000                             : en:00:00:00.000
    00:01:59.578                             : en:00:01:59.578
    00:10:55.530                             : en:00:10:55.530
    00:21:44.595                             : en:00:21:44.595
    00:30:03.260                             : en:00:30:03.260
    00:36:44.119                             : en:00:36:44.119
    00:44:40.720                             : en:00:44:40.720
    00:56:19.668                             : en:00:56:19.668
    01:01:25.223                             : en:01:01:25.223
    01:07:29.128                             : en:01:07:29.128
    01:14:13.115                             : en:01:14:13.115
    01:20:53.349                             : en:01:20:53.349

    Скриншоты:


    © Оформление by Ворон
    pb.wtf



  • Скачать Город, который боялся заката через торрент http://pic.kartinco.top/images/6/ordi9.jpg Скачать фильм Город, который боялся заката через торрент бесплантно в хорошем качестве Описание: 65 лет назад серийный убийца в маске терроризировал жителей небольшого города на западе США. И теперь так называемые «убийства в ... 10 10 5
    Торрент: Зарегистрирован [2015-07-22 07:01] · скачан: 36 раз
    Статус: T временная
    Размер: 4.6 GB
    Как cкачать? Как скачать Город, который боялся заката через торрент | qTorrent

    % Раздел Тема Автор DL S | L
    T Фильмы (Blu-ray, BD-Remux, HDDVD) [ 21.29 GB ] Город который боялся заката / The Town That Dreaded Sundown [2014 BDRemux 1080p от NovaLan] Ворон Скачать
    1 | 0
    T Фильмы 2014 (Звук TS, Cam, VO, DVO) [ 1.32 GB ] Город который боялся заката / The Town That Dreaded Sundown [2014 WEB-DLRipЛюбительский двухголосый] jump88 Скачать
    1 | 0
    T Фильмы 2014 (Звук TS, Cam, VO, DVO) [ 1.37 GB ] Город который боялся заката / The Town That Dreaded Sundown [2014 WEB-DLRip Любительский Ворон Скачать
    1 | 0
    Классика зарубежного кино [ 1.46 GB ] Город который боялся заката / The Town That Dreaded Sundown [1976 HDRip двухголосый jump88 Скачать
    1 | 0

    28-11-2019 20:33  

    Отключить всю рекламу на сайте

      Дорогой пользователь! Огромная просьба, поблагодарите релизера, оцените раздачу и оставьте свои комментарий, если Вы скачали Город, который боялся заката через торрент бесплатно! Внесите свою лепту в развитие PiratBit!
      Комментировать посты могут только пользователи прошедшие не сложную регистрацию
      Показать сообщения:    

      Город, который боялся заката через торрент
      Скачать бесплатно Город, который боялся заката
      Город, который боялся заката скачать торрент
      Город, который боялся заката смотреть онлайн
      Cкачать фильм Город, который боялся заката бесплатно
      Город, который боялся заката скачать торрент в хорошем качестве
      Город, который боялся заката смотреть онлайн бесплатно в хорошем качестве


      Вы не можете начинать темы
      Вы не можете отвечать на сообщения
      Вы не можете редактировать свои сообщения
      Вы не можете удалять свои сообщения
      Вы не можете голосовать в опросах
      Вы не можете прикреплять файлы к сообщениям
      Вы можете скачивать файлы