Ссылка на приватное зеркало нашего сайта всего за 1$. Внимание количество ограничено!!!

2 сезон

iTunes

1 сезон

1

2 сезон

2 сезон

iTunes

1 сезон

RePack

30

Ultimate

ВАЖНО

ИГРА 18+

pack

RePack

MK11
pack

Забери бонус

RePack

jed

!!Акция!!

Alien_Rage

RePack

fifa19

RePack

Assassins Creed: Odyssey

RePack

NEED FOR SPEED™ PAYBACK

4 сезон

9 сезон

Бесстыжие 9 сезон

Все сериалы

все сериалы на PB.wtf

RePack

FAR CRY 5
  

2047 – Угроза смерти / 2047: Sights of Death (Алессандро Капоне) [2014, фантастика, боевик, триллер, BD Remux, Любительский (одноголосый) [datynet] pb.wtf

2047 – Угроза смерти через торрент pb.wtf

Размер: 19.4 GB | Добавлен: 5 лет 4 мес. назад | Торрент скачан:24 раза
Скачать  

22-07-2015 07:04 2047 – Угроза смерти Скачать торрент  


2047 – Угроза смерти / 2047: Sights of Death


ИНФОРМАЦИЯ:
Год выпуска:2014
Страна: Италия
Жанр: фантастика, боевик, триллер
Продолжительность: 01:29:18
Перевод: Любительский (одноголосый) [datynet]
Режиссер: Алессандро Капоне

В Ролях:


Дэнни Гловер (Sponge), Дэрил Ханна (Major Anderson), Майкл Мэдсен (Lobo), Стивен Болдуин (Ryan Willburn), Рутгер Хауэр (Colonel Asimov), Нева Леони (Tuag), Кай Портман (Evilenko), Тимоти Мартин (Sergeant Coogan), Бенжамин Стендер (Jimmy), Маурицио Тезеи (Private Remi), Марио Опинато (Corporal Jano), Марко Бонини (Corporal Greshnov)

Описание:
2047 год. Нашей планетой управляет репрессивный аппарат центрального правительства Конфедерации (CCG). Райан - агент повстанцев организации ГРИНВАР командирован Губкой (Дэнни Гловер), собрать доказательства против CCG за совершённые ей гнусные преступления. Очень скоро Райан сталкивается со зловещим полковник Азимовым (Рутгер Хауэр), майором Андерсон и группой наемников под руководством Лобо (Майкл Мэдсен). Миссия Райана становится сумбурной, когда он встречает Тюаг, мутантку, выжившую в схватке с CCG, которая клянется помочь Райану сохранить то, что осталось от их мира.

  • Мировая премьера:24 июля 2014

    ТЕХ.ДАННЫЕ:
    Качество: BD Remux
    Формат: MKV
    Видео кодек: AVC
    Аудио кодек: DTS, DTS-HD
    Видео: AVC, 1920x1080 (16:9), 28165 kbps, 24 fps, 0,566 bpp
    Аудио №1: русский / DTS / 5.1 / 48 kHz / 1510 kbps / 24 bit ||
    Аудио №2: английский / DTS-HD / 5.1 / 48 kHz / 805 kbps / 24 bit (Core: 5.1 / 48 kHz / 755 kbps / 24 bit)
    Навигация по главам: есть


    Код:

    General
    Unique ID                                : 184195912611703341904982806574848986329 (0x8A92D7A5C628B9DA9A8654E4E40ACCD9)
    Complete name                            : D:\Торенты\2047.Sights.Of.Death.2014.1080p.BD.REMUX.mkv
    Format                                   : Matroska
    Format version                           : Version 4 / Version 2
    File size                                : 19.4 GiB
    Duration                                 : 1h 29mn
    Overall bit rate mode                    : Variable
    Overall bit rate                         : 31.1 Mbps
    Movie name                               : anton1
    Encoded date                             : UTC 2015-07-21 17:13:18
    Writing application                      : mkvmerge v6.9.1 ('Blue Panther') 64bit built on Apr 18 2014 18:23:38
    Writing library                          : libebml v1.3.0 + libmatroska v1.4.1

    Video
    ID                                       : 1
    Format                                   : AVC
    Format/Info                              : Advanced Video Codec
    Format profile                           : High@L4.1
    Format settings, CABAC                   : Yes
    Format settings, ReFrames                : 4 frames
    Codec ID                                 : V_MPEG4/ISO/AVC
    Duration                                 : 1h 29mn
    Bit rate mode                            : Variable
    Bit rate                                 : 28.2 Mbps
    Maximum bit rate                         : 38.0 Mbps
    Width                                    : 1 920 pixels
    Height                                   : 1 080 pixels
    Display aspect ratio                     : 16:9
    Frame rate                               : 24.000 fps
    Color space                              : YUV
    Chroma subsampling                       : 4:2:0
    Bit depth                                : 8 bits
    Scan type                                : Progressive
    Bits/(Pixel*Frame)                       : 0.566
    Stream size                              : 17.6 GiB (91%)
    Language                                 : English
    Default                                  : No
    Forced                                   : No
    Color primaries                          : BT.709-5, BT.1361, IEC 61966-2-4, SMPTE RP177
    Transfer characteristics                 : BT.709-5, BT.1361
    Matrix coefficients                      : BT.709-5, BT.1361, IEC 61966-2-4 709, SMPTE RP177

    Audio #1
    ID                                       : 2
    Format                                   : DTS
    Format/Info                              : Digital Theater Systems
    Codec ID                                 : A_DTS
    Duration                                 : 1h 29mn
    Bit rate mode                            : Constant
    Bit rate                                 : 1 510 Kbps
    Channel(s)                               : 6 channels
    Channel positions                        : Front: L C R, Side: L R, LFE
    Sampling rate                            : 48.0 KHz
    Bit depth                                : 24 bits
    Compression mode                         : Lossy
    Stream size                              : 964 MiB (5%)
    Title                                    : datynet
    Language                                 : Russian
    Default                                  : Yes
    Forced                                   : No

    Audio #2
    ID                                       : 3
    Format                                   : DTS
    Format/Info                              : Digital Theater Systems
    Format profile                           : MA / Core
    Codec ID                                 : A_DTS
    Duration                                 : 1h 29mn
    Bit rate mode                            : Variable
    Bit rate                                 : 806 Kbps / 755 Kbps
    Channel(s)                               : 6 channels
    Channel positions                        : Front: L C R, Side: L R, LFE
    Sampling rate                            : 48.0 KHz
    Bit depth                                : 24 bits
    Compression mode                         : Lossless / Lossy
    Title                                    : original
    Language                                 : English
    Default                                  : No
    Forced                                   : No

    Menu
    00:00:00.000                             : en:Chapter 01
    00:09:53.375                             : en:Chapter 02
    00:20:14.041                             : en:Chapter 03
    00:31:16.875                             : en:Chapter 04
    00:40:07.625                             : en:Chapter 05
    00:51:29.583                             : en:Chapter 06
    01:02:00.333                             : en:Chapter 07
    01:14:23.958                             : en:Chapter 08

    Скриншоты:


    © Оформление by Ворон
    pb.wtf



  • Скачать 2047 – Угроза смерти через торрент http://pic.kartinco.top/images/6/ordi9.jpg Скачать фильм 2047 – Угроза смерти через торрент бесплантно в хорошем качестве Описание: 2047 год. Нашей планетой управляет репрессивный аппарат центрального правительства Конфедерации (CCG). Райан - агент повстанцев ... 10 10 4
    Info! Золотая раздача, скачанное не засчитывается.
    Торрент: Зарегистрирован [2015-07-22 07:04] · скачан: 24 раз
    Статус: √ проверено
    Размер: 19.4 GB
    Как cкачать? Как скачать 2047 – Угроза смерти через торрент | qTorrent

    % Раздел Тема Автор DL S | L
    T Фильмы 2014 (Звук TS, Cam, VO, DVO) [ 1.39 GB ] 2047 – Угроза смерти / 2047: Sights of Death [2014 HDRip Любительский [datynet] Ворон Скачать
    1 | 0
    Фильмы без перевода [ 7.4 GB ] 2047 – Угроза смерти / 2047 - Sights of Death [2014 BDRip 1080p] [ENG] killermax2013 Скачать
    1 | 0

    28-11-2019 20:33  

    Отключить всю рекламу на сайте

      Дорогой пользователь! Огромная просьба, поблагодарите релизера, оцените раздачу и оставьте свои комментарий, если Вы скачали 2047 – Угроза смерти через торрент бесплатно! Внесите свою лепту в развитие PiratBit!
      Комментировать посты могут только пользователи прошедшие не сложную регистрацию
      Показать сообщения:    

      2047 – Угроза смерти через торрент
      Скачать бесплатно 2047 – Угроза смерти
      2047 – Угроза смерти скачать торрент
      2047 – Угроза смерти смотреть онлайн
      Cкачать фильм 2047 – Угроза смерти бесплатно
      2047 – Угроза смерти скачать торрент в хорошем качестве
      2047 – Угроза смерти смотреть онлайн бесплатно в хорошем качестве


      Вы не можете начинать темы
      Вы не можете отвечать на сообщения
      Вы не можете редактировать свои сообщения
      Вы не можете удалять свои сообщения
      Вы не можете голосовать в опросах
      Вы не можете прикреплять файлы к сообщениям
      Вы можете скачивать файлы