1 сезон

1 сезон

iTunes

1

КиноПоиск HD

Кинопоиск HD

iTunes

13

1 сезон

RePack

30

Новинка

ВАЖНО

ИГРА 18+

pack

RePack

MK11
pack

Легкие деньги

RePack

jed

RePack

fifa19

RePack

RDR2

RePack

NEED FOR SPEED™ PAYBACK

4 сезон

9 сезон

Бесстыжие 9 сезон

Все сериалы

все сериалы на PB.wtf

RePack

FAR CRY 5
  
Magnet ссылка

Читай по губам / Sur mes levres (Жак Одиар) [2001, триллер, драма, мелодрама, криминал, BDRip AVC by msltel] MVO, VO (профессиональный) pb.wtf

Читай по губам через торрент pb.wtf

Размер: 3.41 GB | Добавлен: 5 лет 8 мес. назад | Торрент скачан:67 раз
Скачать  

22-07-2015 07:55 Читай по губам Скачать торрент  

Название: Читай по губам
Оригинальное название: Sur mes levres
Год выпуска: 2001
Страна: Франция
Жанр: триллер, драма, мелодрама, криминал
Продолжительность: 01:59:02
Перевод: профессиональный многоголосый, профессиональный одноголосый

Режиссёр: Жак Одиар

В ролях: Венсан Кассель, Эммануэль Дево, Оливье Гурме, Оливье Перье, Оливия Бонами, Бернар Алан, Селин Сами, Пьер Дио, Франсуа Лорике, Серж Бутлерофф, Дэвид Саракино, Кристоф Вандевельде, Бо Готье де Кермоаль, Луи Ле Пейдж, Натали Лакруа, Лорен Вало, Кристиана Коэнди, Изабель Кобер

Описание: 35-летняя Карла Бем — обычная секретарша в конторе по торговле недвижимостью. Вся её жизнь — повседневная рутинная работа и одиночество дома. К тому же, Карла очень плохо слышит. Она носит слуховой аппарат и умеет читать по губам. Поэтому она с радостью принимает предложение получить себе в помощь стажера, 25-летнего Поля, недавно вышедшего из тюрьмы. Она научит его хорошим манерам, а он её — плохим...



Качество: BDRip AVC Сравнение с исходником
Формат: MKV
Видео кодек: H.264
Аудио кодек: AC3
Видео: MPEG-4 AVC, 2673 Kбит/с, 1024x552, 24 кадра/с
Аудио 1: русский, AC3, 448 kbps, 6 ch, 48 kHz [профессиональный многоголосый, RUSCICO]
Аудио 2: русский, AC3, 448 kbps, 6 ch, 48 kHz [профессиональный одноголосый, RUSCICO]
Аудио 3: французский, AC3, 448 kbps, 6 ch, 48 kHz [оригинал]
Субтитры 1: русские (вариант 1)
Субтитры 2: русские (вариант 2)
Субтитры 3: английские
Сезар, 2002 год
Победитель (3):
Лучшая актриса ( Эммануэль Дево )
Лучший адаптированный или оригинальный сценарий
Лучший звук

Номинации (6):
Лучший фильм
Лучший актер (Венсан Кассель)
Лучший режиссер (Жак Одиар)
Лучшая работа оператора
Лучший монтаж
Лучший саундтрек

Европейская киноакадемия, 2002 год
Номинации (4):
Лучшая женская роль (Эммануэль Дево)
Лучшая работа сценариста (Жак Одиар, Тонино Бенаквиста)
Приз зрительских симпатий за лучшую мужскую роль (Венсан Кассель)
Приз зрительских симпатий за лучшую женскую роль (Эммануэль Дево)
Общее
Уникальный идентификатор : 179011995314648515854999838159430930014 (0x86AC74CAB596ADF09E160F2A513ACE5E)
Полное имя : D:\Video\Читай по губам.2001.BDRip.AVC.mkv
Формат : Matroska
Версия формата : Version 4 / Version 2
Размер файла : 3,41 Гбайт
Продолжительность : 1 ч. 59 м.
Общий поток : 4098 Кбит/сек
Название фильма : BDRip -- STarankov
Дата кодирования : UTC 2015-07-21 15:19:14
Программа кодирования : mkvmerge v8.2.0 ('World of Adventure') 64bit
Библиотека кодирования : libebml v1.3.1 + libmatroska v1.4.2
DURATION : 01:52:53.499000000
NUMBER_OF_FRAMES : 1026
NUMBER_OF_BYTES : 32894
_STATISTICS_WRITING_APP : mkvmerge v8.2.0 ('World of Adventure') 64bit
_STATISTICS_WRITING_DATE_UTC : 2015-07-21 15:19:14
_STATISTICS_TAGS : BPS DURATION NUMBER_OF_FRAMES NUMBER_OF_BYTES

Видео
Идентификатор : 1
Формат : AVC
Формат/Информация : Advanced Video Codec
Профиль формата : High@L4.1
Параметр CABAC формата : Да
Параметр ReFrames формата : 9 кадров
Идентификатор кодека : V_MPEG4/ISO/AVC
Продолжительность : 1 ч. 59 м.
Битрейт : 2673 Кбит/сек
Ширина : 1024 пикселя
Высота : 552 пикселя
Соотношение сторон : 1,85:1
Режим частоты кадров : Постоянный
Частота кадров : 24,000 кадра/сек
Цветовое пространство : YUV
Субдискретизация насыщенности : 4:2:0
Битовая глубина : 8 бит
Тип развёртки : Прогрессивная
Бит/(Пиксели*Кадры) : 0.197
Размер потока : 2,22 Гбайт (65%)
Библиотека кодирования : x264 core 146 r2538 121396c
Настройки программы : cabac=1 / ref=9 / deblock=1:-1:-1 / analyse=0x3:0x113 / me=umh / subme=10 / psy=1 / psy_rd=1.00:0.15 / mixed_ref=1 / me_range=32 / chroma_me=1 / trellis=2 / 8x8dct=1 / cqm=0 / deadzone=21,11 / fast_pskip=1 / chroma_qp_offset=-3 / threads=6 / lookahead_threads=1 / sliced_threads=0 / nr=0 / decimate=1 / interlaced=0 / bluray_compat=0 / constrained_intra=0 / bframes=8 / b_pyramid=2 / b_adapt=2 / b_bias=0 / direct=1 / weightb=1 / open_gop=0 / weightp=2 / keyint=230 / keyint_min=23 / scenecut=40 / intra_refresh=0 / rc_lookahead=40 / rc=crf / mbtree=0 / crf=19.8 / qcomp=0.60 / qpmin=0 / qpmax=69 / qpstep=4 / vbv_maxrate=40000 / vbv_bufsize=50000 / crf_max=0.0 / nal_hrd=none / filler=0 / ip_ratio=1.40 / pb_ratio=1.30 / aq=1:1.00
Язык : French
Default : Да
Forced : Нет
DURATION : 01:59:02.000000000
NUMBER_OF_FRAMES : 171408
NUMBER_OF_BYTES : 2456543368
_STATISTICS_WRITING_APP : mkvmerge v8.2.0 ('World of Adventure') 64bit
_STATISTICS_WRITING_DATE_UTC : 2015-07-21 15:19:14
_STATISTICS_TAGS : BPS DURATION NUMBER_OF_FRAMES NUMBER_OF_BYTES

Аудио #1
Идентификатор : 2
Формат : AC-3
Формат/Информация : Audio Coding 3
Расширение режима : CM (complete main)
Параметр Endianness формата : Big
Идентификатор кодека : A_AC3
Продолжительность : 1 ч. 59 м.
Вид битрейта : Постоянный
Битрейт : 448 Кбит/сек
Каналы : 6 каналов
Расположение каналов : Front: L C R, Side: L R, LFE
Частота : 48,0 КГц
Метод сжатия : С потерями
Размер потока : 381 Мбайт (11%)
Заголовок : MVO (RUSCICO)
Язык : Russian
Default : Да
Forced : Нет

Аудио #2
Идентификатор : 3
Формат : AC-3
Формат/Информация : Audio Coding 3
Расширение режима : CM (complete main)
Параметр Endianness формата : Big
Идентификатор кодека : A_AC3
Продолжительность : 1 ч. 59 м.
Вид битрейта : Постоянный
Битрейт : 448 Кбит/сек
Каналы : 6 каналов
Расположение каналов : Front: L C R, Side: L R, LFE
Частота : 48,0 КГц
Метод сжатия : С потерями
Размер потока : 381 Мбайт (11%)
Заголовок : VO (RUSCICO)
Язык : Russian
Default : Нет
Forced : Нет

Аудио #3
Идентификатор : 4
Формат : AC-3
Формат/Информация : Audio Coding 3
Расширение режима : CM (complete main)
Параметр Endianness формата : Big
Идентификатор кодека : A_AC3
Продолжительность : 1 ч. 59 м.
Вид битрейта : Постоянный
Битрейт : 448 Кбит/сек
Каналы : 6 каналов
Расположение каналов : Front: L C R, Side: L R, LFE
Частота : 48,0 КГц
Метод сжатия : С потерями
Размер потока : 381 Мбайт (11%)
Заголовок : Original
Язык : French
Default : Нет
Forced : Нет

Текст #1
Идентификатор : 5
Формат : UTF-8
Идентификатор кодека : S_TEXT/UTF8
Идентификатор кодека/Информация : UTF-8 Plain Text
Заголовок : русский (вариант 1)
Язык : Russian
Default : Нет
Forced : Нет

Текст #2
Идентификатор : 6
Формат : UTF-8
Идентификатор кодека : S_TEXT/UTF8
Идентификатор кодека/Информация : UTF-8 Plain Text
Заголовок : русский (вариант 2)
Язык : Russian
Default : Нет
Forced : Нет

Текст #3
Идентификатор : 7
Формат : UTF-8
Идентификатор кодека : S_TEXT/UTF8
Идентификатор кодека/Информация : UTF-8 Plain Text
Заголовок : английский
Default : Нет
Forced : Нет
pb.wtf



Скачать Читай по губам через торрент http://i72.fastpic.ru/big/2015/0722/08/3882a0368fc0c6bb278eb9a03b559e08.jpg Скачать фильм Читай по губам через торрент бесплантно в хорошем качестве Описание: 35-летняя Карла Бем — обычная секретарша в конторе по торговле недвижимостью. Вся её жизнь — повседневная рутинная работа и ... 10 10 3
Торрент: Зарегистрирован [2015-07-22 07:55] · скачан: 67 раз
Статус: √ проверено
Размер: 3.41 GB
Как cкачать? Как скачать Читай по губам через торрент | UTorrent

% Раздел Тема Автор DL S | L
Фильмы [HD 720p, 1080p] (Хороший звук DUB, MVO) [ 12.95 GB ] Читай по губам / Sur mes levres [2001 BDRip 1080p by msltel] MVO VO msltel Скачать
1 | 0
Фильмы [HD 720p, 1080p] (Хороший звук DUB, MVO) [ 5.23 GB ] Читай по губам / Sur mes levres [2001 BDRip 720p by msltel] MVO VO msltel Скачать
1 | 0

28-11-2019 20:33  

Отключить всю рекламу на сайте

    Дорогой пользователь! Огромная просьба, поблагодарите релизера, оцените раздачу и оставьте свои комментарий, если Вы скачали Читай по губам через торрент бесплатно! Внесите свою лепту в развитие PiratBit!
    Комментировать посты могут только пользователи прошедшие не сложную регистрацию
    Показать сообщения:    

    Читай по губам через торрент
    Скачать бесплатно Читай по губам
    Читай по губам скачать торрент
    Читай по губам смотреть онлайн
    Cкачать фильм Читай по губам бесплатно
    Читай по губам скачать торрент в хорошем качестве
    Читай по губам смотреть онлайн бесплатно в хорошем качестве


    Вы не можете начинать темы
    Вы не можете отвечать на сообщения
    Вы не можете редактировать свои сообщения
    Вы не можете удалять свои сообщения
    Вы не можете голосовать в опросах
    Вы не можете прикреплять файлы к сообщениям
    Вы можете скачивать файлы