Ссылка на приватное зеркало всего за 1$. Внимание количество ограничено!!!

iTunes

iTunes

iTunes

1

iTunes

iTunes

iTunes

iTunes

iTunes

30
pack

Новость дня

ВАЖНО

!!Акция!!

Alien_RageХит недели

RePack

Resident Evil 21

ИГРА 18+

pack

RePack

jed

!!Акция!!

Alien_Rage

RePack

fifa19

RePack

Assassins Creed: Odyssey

RePack

NEED FOR SPEED™ PAYBACK

4 сезон

9 сезон

Бесстыжие 9 сезон

Все сериалы

все сериалы на PB.wtf

RePack

FAR CRY 5
  

Сталкер (Андрей Тарковский) [1979, фантастика, драма, детектив, BDRip, от HQ-ViDEO] pb.wtf

Сталкер через торрент pb.wtf

Размер: 2.18 GB | Добавлен: 4 года 10 мес. назад | Торрент скачан:218 раз
Скачать  

22-07-2015 14:45 Сталкер Скачать торрент  


Сталкер


ИНФОРМАЦИЯ:
Год выпуска:1979
Страна: СССР
Жанр: фантастика, драма, детектив, приключения
Продолжительность: 02:41:44
Перевод: Не требуется
Режиссер: Андрей Тарковский

В Ролях:


Александр Кайдановский, Анатолий Солоницын, Алиса Фрейндлих, Николай Гринько, Наташа Абрамова (Marta, doch Stalkera), Файме Юрно (Sobesednitsa Pisatelya), Е. Костин, Раймо Ренди (Patrulnyy politseyskiy), Сергей Яковлев, Владимир Заманский

Описание:
В этой ленте, снятой по мотивам повести братьев Стругацких «Пикник на обочине», действие происходит в некой запретной Зоне, где, по слухам, существует комната, где исполняются самые заветные желания.
К этой комнате отправляются модный Писатель и авторитетный Профессор - каждый по своим причинам, о которых предпочитают не говорить. А ведет их туда Сталкер - проводник по Зоне - то ли юродивый, то ли апостол новой веры...

  • Мировая премьера:17 апреля 1980

    ТЕХ.ДАННЫЕ:
    Качество: BDRip(источник: HDCLUB / Blu-ray Disc JPN / 1080p)
    Формат: AVI
    Видео кодек: XviD
    Аудио кодек: AC3
    Видео: XviD, 704x528 (4:3), 1656 kbps, 23,976 fps, 0,186 bpp
    Аудио: AC3 / 2.0 / 48 kHz / 192 kbps / 16 bit


    Код:

    General
    Complete name                            : D:\Торенты\Stalker.1979.RUS.BDRip.XviD.AC3.-HQ-ViDEO.avi
    Format                                   : AVI
    Format/Info                              : Audio Video Interleave
    File size                                : 2.18 GiB
    Duration                                 : 2h 41mn
    Overall bit rate                         : 1 934 Kbps
    Movie name                               : Stalker (1979) by Andrei Tarkovskii
    Director                                 : HRIME [Blu-ray Disc JPN - HDCLUB]
    Writing application                      : VirtualDubMod 1.5.10.2 (build 2542/release)
    Copyright                                : HQ-ViDEO
    Comment                                  : 20.06.2015

    Video
    ID                                       : 0
    Format                                   : MPEG-4 Visual
    Format profile                           : Advanced Simple@L5
    Format settings, BVOP                    : 1
    Format settings, QPel                    : No
    Format settings, GMC                     : No warppoints
    Format settings, Matrix                  : Custom
    Codec ID                                 : XVID
    Codec ID/Hint                            : XviD
    Duration                                 : 2h 41mn
    Bit rate                                 : 1 656 Kbps
    Width                                    : 704 pixels
    Height                                   : 528 pixels
    Display aspect ratio                     : 4:3
    Frame rate                               : 23.976 fps
    Color space                              : YUV
    Chroma subsampling                       : 4:2:0
    Bit depth                                : 8 bits
    Scan type                                : Progressive
    Compression mode                         : Lossy
    Bits/(Pixel*Frame)                       : 0.186
    Stream size                              : 1.87 GiB (86%)
    Writing library                          : XviD 73

    Audio
    ID                                       : 1
    Format                                   : AC-3
    Format/Info                              : Audio Coding 3
    Mode extension                           : CM (complete main)
    Codec ID                                 : 2000
    Duration                                 : 2h 41mn
    Bit rate mode                            : Constant
    Bit rate                                 : 192 Kbps
    Channel(s)                               : 2 channels
    Channel positions                        : Front: L R
    Sampling rate                            : 48.0 KHz
    Bit depth                                : 16 bits
    Compression mode                         : Lossy
    Stream size                              : 222 MiB (10%)
    Alignment                                : Split accross interleaves

    Скриншоты:


    © Оформление by Ворон
    pb.wtf



  • Скачать Сталкер через торрент http://pic.kartinco.top/images/6/ordi9.jpg Скачать фильм Сталкер через торрент бесплантно в хорошем качестве Описание: В этой ленте, снятой по мотивам повести братьев Стругацких «Пикник на обочине», действие происходит в некой запретной Зоне, где, ... 8.8 10 8
    Торрент: Зарегистрирован [2015-07-22 14:45] · скачан: 218 раз
    Статус: √ проверено
    Размер: 2.18 GB
    Как cкачать? Как скачать Сталкер через торрент | qTorrent

    % Раздел Тема Автор DL S | L
    Отечественная Поп музыка (lossless) [ 581 MB ] Андрей Державин и группа Сталкер - Песни о хорошем 2019 / FLAC / lossless / Поп bober100 Скачать
    3 | 0
    Отечественная Поп музыка (lossless) [ 268 MB ] Андрей Державин и 'Сталкер' - Песни о хорошем Часть 2 2019 / FLAC / lossless / Поп bober100 Скачать
    1 | 0
    Отечественная Поп музыка (lossless) [ 314 MB ] Андрей Державин и 'Сталкер' - Песни о хорошем Часть 1 2019 / FLAC / lossless / Поп bober100 Скачать
    1 | 0
    Отечественная Поп музыка (mp3) [ 87 MB ] Андрей Державин и 'Сталкер' - Песни о хорошем Часть 2 2019 / MP3 / 320 kbps / Поп bober100 Скачать
    2 | 0
    Отечественная Поп музыка (mp3) [ 99 MB ] Андрей Державин и 'Сталкер' - Песни о хорошем Часть 1 2019 / MP3 / 320 kbps / Поп bober100 Скачать
    1 | 0
    S.T.A.L.K.E.R. [ 6.34 GB ] S.T.A.L.K.E.R.: Shadow of Chernobyl - Последний Сталкер [Repack RUS] от SeregA-Lus SeregA_Lus Скачать
    16 | 1
    Кино СССР [ 4.36 GB ] Сталкер [1979 BDRip-AVC] USA Transfer [Remastered] - ExKinoRay Enigma2010 Скачать
    2 | 0

    28-11-2019 20:33  

    Отключить всю рекламу на сайте

      Дорогой пользователь! Огромная просьба, поблагодарите релизера, оцените раздачу и оставьте свои комментарий, если Вы скачали Сталкер через торрент бесплатно! Внесите свою лепту в развитие PiratBit!
      Комментировать посты могут только пользователи прошедшие не сложную регистрацию
      Показать сообщения:    

      Сталкер через торрент
      Скачать бесплатно Сталкер
      Сталкер скачать торрент
      Сталкер смотреть онлайн
      Cкачать фильм Сталкер бесплатно
      Сталкер скачать торрент в хорошем качестве
      Сталкер смотреть онлайн бесплатно в хорошем качестве


      Вы не можете начинать темы
      Вы не можете отвечать на сообщения
      Вы не можете редактировать свои сообщения
      Вы не можете удалять свои сообщения
      Вы не можете голосовать в опросах
      Вы не можете прикреплять файлы к сообщениям
      Вы можете скачивать файлы