новый адрес пиратбит piratbit
Мега распродажа FORZA HORIZON 4 ULTIMATE+ВСЕ DLC+ОНЛАЙН всего за 499р. 349 руб. (супер цена). Внимание количество ограничено!!!

iTunes

1+1

iTunes

мы

iTunes

1

iTunes

Чернобыль

iTunes

Ральф против интернета

Лицензия

ПШазам

Лицензия

Игра престолов

Лицензия

30
pack

ВАЖНО

!!Акция!!

Alien_RageХит недели

RePack

Resident Evil 21

ИГРА 18+

pack

RePack

Metro:Exodus

!!Акция!!

Alien_Rage

RePack

fifa19

RePack

Assassins Creed: Odyssey

RePack

NEED FOR SPEED™ PAYBACK

3 сезон

9 сезон

Бесстыжие 9 сезон

Все сериалы

все сериалы на PB.wtf

RePack

FAR CRY 5
Ребята, катастрофически не хватает 1900р. для оплаты серверов за Октябрь (всвязи с блокировками трафик упал в 3 раза), 1-2р., выручайте.
  

Сталкер (Андрей Тарковский) [1979, фантастика, драма, детектив, BDRip, от HQ-ViDEO] pb.wtf

Сталкер через торрент pb.wtf

Размер: 2.18 GB | Добавлен: 4 года 3 мес. назад | Торрент скачан:212 раз
Скачать  

22-07-2015 14:45 Сталкер Скачать торрент  


Сталкер


ИНФОРМАЦИЯ:
Год выпуска:1979
Страна: СССР
Жанр: фантастика, драма, детектив, приключения
Продолжительность: 02:41:44
Перевод: Не требуется
Режиссер: Андрей Тарковский

В Ролях:


Александр Кайдановский, Анатолий Солоницын, Алиса Фрейндлих, Николай Гринько, Наташа Абрамова (Marta, doch Stalkera), Файме Юрно (Sobesednitsa Pisatelya), Е. Костин, Раймо Ренди (Patrulnyy politseyskiy), Сергей Яковлев, Владимир Заманский

Описание:
В этой ленте, снятой по мотивам повести братьев Стругацких «Пикник на обочине», действие происходит в некой запретной Зоне, где, по слухам, существует комната, где исполняются самые заветные желания.
К этой комнате отправляются модный Писатель и авторитетный Профессор - каждый по своим причинам, о которых предпочитают не говорить. А ведет их туда Сталкер - проводник по Зоне - то ли юродивый, то ли апостол новой веры...

  • Мировая премьера:17 апреля 1980

    ТЕХ.ДАННЫЕ:
    Качество: BDRip(источник: HDCLUB / Blu-ray Disc JPN / 1080p)
    Формат: AVI
    Видео кодек: XviD
    Аудио кодек: AC3
    Видео: XviD, 704x528 (4:3), 1656 kbps, 23,976 fps, 0,186 bpp
    Аудио: AC3 / 2.0 / 48 kHz / 192 kbps / 16 bit


    Код:

    General
    Complete name                            : D:\Торенты\Stalker.1979.RUS.BDRip.XviD.AC3.-HQ-ViDEO.avi
    Format                                   : AVI
    Format/Info                              : Audio Video Interleave
    File size                                : 2.18 GiB
    Duration                                 : 2h 41mn
    Overall bit rate                         : 1 934 Kbps
    Movie name                               : Stalker (1979) by Andrei Tarkovskii
    Director                                 : HRIME [Blu-ray Disc JPN - HDCLUB]
    Writing application                      : VirtualDubMod 1.5.10.2 (build 2542/release)
    Copyright                                : HQ-ViDEO
    Comment                                  : 20.06.2015

    Video
    ID                                       : 0
    Format                                   : MPEG-4 Visual
    Format profile                           : Advanced Simple@L5
    Format settings, BVOP                    : 1
    Format settings, QPel                    : No
    Format settings, GMC                     : No warppoints
    Format settings, Matrix                  : Custom
    Codec ID                                 : XVID
    Codec ID/Hint                            : XviD
    Duration                                 : 2h 41mn
    Bit rate                                 : 1 656 Kbps
    Width                                    : 704 pixels
    Height                                   : 528 pixels
    Display aspect ratio                     : 4:3
    Frame rate                               : 23.976 fps
    Color space                              : YUV
    Chroma subsampling                       : 4:2:0
    Bit depth                                : 8 bits
    Scan type                                : Progressive
    Compression mode                         : Lossy
    Bits/(Pixel*Frame)                       : 0.186
    Stream size                              : 1.87 GiB (86%)
    Writing library                          : XviD 73

    Audio
    ID                                       : 1
    Format                                   : AC-3
    Format/Info                              : Audio Coding 3
    Mode extension                           : CM (complete main)
    Codec ID                                 : 2000
    Duration                                 : 2h 41mn
    Bit rate mode                            : Constant
    Bit rate                                 : 192 Kbps
    Channel(s)                               : 2 channels
    Channel positions                        : Front: L R
    Sampling rate                            : 48.0 KHz
    Bit depth                                : 16 bits
    Compression mode                         : Lossy
    Stream size                              : 222 MiB (10%)
    Alignment                                : Split accross interleaves

    Скриншоты:


    © Оформление by Ворон
    pb.wtf



  • Скачать Сталкер через торрент http://pic.kartinco.top/images/6/ordi9.jpg Скачать фильм Сталкер через торрент бесплантно в хорошем качестве Описание: В этой ленте, снятой по мотивам повести братьев Стругацких «Пикник на обочине», действие происходит в некой запретной Зоне, где, ... 8.8 10 8
    Торрент: Зарегистрирован [2015-07-22 14:45] · скачан: 212 раз
    Статус: √ проверено
    Размер: 2.18 GB
    Как cкачать? Как скачать Сталкер через торрент | qTorrent

    % Раздел Тема Автор DL S | L
    S.T.A.L.K.E.R. [ 6.21 GB ] S.T.A.L.K.E.R.: Shadow of Chernobyl - Последний Сталкер [Repack RUS] SeregA_Lus Скачать
    194 | 15
    S.T.A.L.K.E.R. [ 4.34 GB ] Сталкер: Тень Чернобыля/S.T.A.L.K.E.R. Shadow of Chernoby[лицензия RU GSC Game World] DoTa Скачать
    1 | 0
    Металл (mp3) [ 99 MB ] Мария-Режина - За кем идёт сталкер? 2017 / MP3 / 320 kbps / Хэви-Метал oleg8 Скачать
    1 | 0
    Фантастика [ 529 MB ] Андрей Левицкий - S.T.A.L.K.E.R. / Я - сталкер: Рождение Зоны [Олег Лобанов 2019 128 kbps MP3] bober100 Скачать
    1 | 0
    Фантастика [ 528 MB ] Андрей Левицкий - S.T.A.L.K.E.R.: Два сталкера. Чёрный судья [Олег Лобанов 2019 128 kbps MP3] bober100 Скачать
    1 | 0
    S.T.A.L.K.E.R. [ 3.24 GB ] Сталкер: Зов Припяти / S.T.A.L.K.E.R. Call of Pripyat + LSM Team Mod [Пиратка RU Action / 3D / 1st Person] Zambezi Скачать
    2 | 0
    S.T.A.L.K.E.R. [ 3.13 GB ] Сталкер: Тень Чернобыля: Тайные Тропы 2 2011 [RePack RU/ RU Shooter Action TPS] от cdman Typucm Скачать
    3 | 0


    >> Регистрируемся здесь <<






    Отзывы и комментарии о схеме читаем и пишем здесь: ---> Отзывы и комментарии о схеме

    Новые благодарочки в телеграм довольных пользователей:
    скриншот   скриншот   скриншот   скриншот   скриншот
      Дорогой пользователь! Огромная просьба, поблагодарите релизера, оцените раздачу и оставьте свои комментарий, если Вы скачали Сталкер через торрент бесплатно! Внесите свою лепту в развитие PiratBit!
      Комментировать посты могут только пользователи прошедшие не сложную регистрацию
      Показать сообщения:    

      Сталкер через торрент
      Скачать бесплатно Сталкер
      Сталкер скачать торрент
      Сталкер смотреть онлайн
      Cкачать фильм Сталкер бесплатно
      Сталкер скачать торрент в хорошем качестве
      Сталкер смотреть онлайн бесплатно в хорошем качестве


      Вы не можете начинать темы
      Вы не можете отвечать на сообщения
      Вы не можете редактировать свои сообщения
      Вы не можете удалять свои сообщения
      Вы не можете голосовать в опросах
      Вы не можете прикреплять файлы к сообщениям
      Вы можете скачивать файлы