Ссылка на приватное зеркало всего за 1$. Внимание количество ограничено!!!

iTunes

iTunes

iTunes

1

iTunes

iTunes

iTunes

iTunes

iTunes

30
pack

$ от Little Big

ВАЖНО

!!Акция!!

Alien_RageХит недели

RePack

Resident Evil 21

ИГРА 18+

pack

RePack

jed

!!Акция!!

Alien_Rage

RePack

fifa19

RePack

Assassins Creed: Odyssey

RePack

NEED FOR SPEED™ PAYBACK

4 сезон

9 сезон

Бесстыжие 9 сезон

Все сериалы

все сериалы на PB.wtf

RePack

FAR CRY 5
  

Лондонские каникулы / A Royal Night Out (Джулиан Джаррольд) [2015, триллер, драма, мелодрама, WEB-DL 1080p, Дубляж] iTunes pb.wtf

Лондонские каникулы через торрент pb.wtf

Размер: 3.14 GB | Добавлен: 4 года 11 мес. назад | Торрент скачан:155 раз
Скачать  

22-07-2015 18:46 Лондонские каникулы Скачать торрент  


Лондонские каникулы / A Royal Night Out


ИНФОРМАЦИЯ:
Год выпуска:2015
Страна: Великобритания
Жанр: триллер, драма, мелодрама
Продолжительность: 01:32:50
Перевод: Дубляж - [Лицензия / iTunes]
Режиссер: Джулиан Джаррольд

В Ролях:


Сара Гадон (Princess Elizabeth), Эмили Уотсон (Queen Elizabeth), Джек Рейнор (Jack), Руперт Эверетт (King George), Бел Паули (Princess Margaret), Роджер Аллам, Джек Гордон (Lieutenant Burridge), Анастасия Харрольд (Fountain Girl), Джек Лэски (Captain Pryce), Рут Шин (Jack's Mum), Лоуренс Спэллман (Captain Ashworth), Мария Ли Метэрингем (Lord Stan's Girl)

Описание:
Во время Дня Победы в Европе в 1945 году принцессе Маргарет и ее сестре Элизабет разрешают покинуть пределы Букингемского дворца на ночь, там они сталкиваются с романтическими приключениями и опасностью...

  • Мировая премьера:14 мая 2015

    ТЕХ.ДАННЫЕ:
    Качество: WEB-DL 1080p
    Формат: MKV
    Видео кодек: AVC
    Аудио кодек: AC3
    Видео: AVC, 1920x800 (2.40:1), 4365 kbps, 25 fps, 0,114 bpp
    Аудио: русский / AC3 / 5.1 / 48 kHz / 384 kbps / 16 bit ||
    Навигация по главам: есть


    Код:

    General
    Unique ID                                : 254881175739332123442338680228100189135 (0xBFC0543047C8A46F9A09E28ABDE42BCF)
    Complete name                            : D:\Торенты\1ondonskie.Kan1kuli.2015.D.WEB-DL.1080p.mkv
    Format                                   : Matroska
    Format version                           : Version 4 / Version 2
    File size                                : 3.14 GiB
    Duration                                 : 1h 32mn
    Overall bit rate                         : 4 846 Kbps
    Encoded date                             : UTC 2015-07-22 17:06:41
    Writing application                      : mkvmerge v6.9.1 ('Blue Panther') 64bit built on Apr 18 2014 18:23:38
    Writing library                          : libebml v1.3.0 + libmatroska v1.4.1

    Video
    ID                                       : 1
    Format                                   : AVC
    Format/Info                              : Advanced Video Codec
    Format profile                           : High@L4.0
    Format settings, CABAC                   : Yes
    Format settings, ReFrames                : 5 frames
    Codec ID                                 : V_MPEG4/ISO/AVC
    Duration                                 : 1h 32mn
    Bit rate                                 : 4 365 Kbps
    Width                                    : 1 920 pixels
    Height                                   : 800 pixels
    Display aspect ratio                     : 2.40:1
    Frame rate                               : 25.000 fps
    Color space                              : YUV
    Chroma subsampling                       : 4:2:0
    Bit depth                                : 8 bits
    Scan type                                : Progressive
    Bits/(Pixel*Frame)                       : 0.114
    Stream size                              : 2.83 GiB (90%)
    Language                                 : English
    Default                                  : Yes
    Forced                                   : No
    Color primaries                          : BT.709-5, BT.1361, IEC 61966-2-4, SMPTE RP177
    Transfer characteristics                 : BT.709-5, BT.1361
    Matrix coefficients                      : BT.709-5, BT.1361, IEC 61966-2-4 709, SMPTE RP177

    Audio
    ID                                       : 2
    Format                                   : AC-3
    Format/Info                              : Audio Coding 3
    Mode extension                           : CM (complete main)
    Codec ID                                 : A_AC3
    Duration                                 : 1h 32mn
    Bit rate mode                            : Constant
    Bit rate                                 : 384 Kbps
    Channel(s)                               : 6 channels
    Channel positions                        : Front: L C R, Side: L R, LFE
    Sampling rate                            : 48.0 KHz
    Bit depth                                : 16 bits
    Compression mode                         : Lossy
    Stream size                              : 255 MiB (8%)
    Language                                 : Russian
    Default                                  : Yes
    Forced                                   : No

    Menu
    00:00:00.000                             : en:Глава 1
    00:06:04.000                             : en:Глава 2
    00:11:18.000                             : en:Глава 3
    00:16:51.000                             : en:Глава 4
    00:21:13.000                             : en:Глава 5
    00:27:22.000                             : en:Глава 6
    00:32:00.000                             : en:Глава 7
    00:37:06.000                             : en:Глава 8
    00:42:22.000                             : en:Глава 9
    00:47:47.000                             : en:Глава 10
    00:53:32.000                             : en:Глава 11
    00:59:32.000                             : en:Глава 12
    01:05:10.000                             : en:Глава 13
    01:11:13.000                             : en:Глава 14
    01:15:57.000                             : en:Глава 15
    01:20:34.000                             : en:Глава 16
    01:25:46.000                             : en:Глава 17

    Скриншоты:


    © Оформление by Ворон
    pb.wtf



  • Скачать Лондонские каникулы через торрент http://pic.kartinco.top/images/6/ordi9.jpg Скачать фильм Лондонские каникулы через торрент бесплантно в хорошем качестве Описание: Во время Дня Победы в Европе в 1945 году принцессе Маргарет и ее сестре Элизабет разрешают покинуть пределы Букингемского дворца ... 10 10 6
    Торрент: Зарегистрирован [2015-07-22 18:46] · скачан: 155 раз
    Статус: √ проверено
    Размер: 3.14 GB
    Как cкачать? Как скачать Лондонские каникулы через торрент | qTorrent

    % Раздел Тема Автор DL S | L
    Фильмы 2014 [DVDrip, WEB-DLRip, HDrip] [ 1.42 GB ] Лондонские каникулы / A Royal Night Out [2014 BDRip-AVC] Dub potroks Скачать
    1 | 0
    Фильмы (WEB-DL 720p, 1080p) [ 2.87 GB ] Лондонские каникулы / A Royal Night Out [2015 WEB-DL 720p ] Ворон Скачать
    1 | 0

    28-11-2019 20:33  

    Отключить всю рекламу на сайте

      Дорогой пользователь! Огромная просьба, поблагодарите релизера, оцените раздачу и оставьте свои комментарий, если Вы скачали Лондонские каникулы через торрент бесплатно! Внесите свою лепту в развитие PiratBit!
      Комментировать посты могут только пользователи прошедшие не сложную регистрацию
      Показать сообщения:    

      Лондонские каникулы через торрент
      Скачать бесплатно Лондонские каникулы
      Лондонские каникулы скачать торрент
      Лондонские каникулы смотреть онлайн
      Cкачать фильм Лондонские каникулы бесплатно
      Лондонские каникулы скачать торрент в хорошем качестве
      Лондонские каникулы смотреть онлайн бесплатно в хорошем качестве


      Вы не можете начинать темы
      Вы не можете отвечать на сообщения
      Вы не можете редактировать свои сообщения
      Вы не можете удалять свои сообщения
      Вы не можете голосовать в опросах
      Вы не можете прикреплять файлы к сообщениям
      Вы можете скачивать файлы