2 сезон

iTunes

MVO

1

2 сезон

iTunes

iTunes

1 сезон

RePack

30

Ultimate

ВАЖНО

ИГРА 18+

pack

RePack

MK11
pack

Легкие деньги

RePack

jed

RePack

fifa19

RePack

RDR2

RePack

NEED FOR SPEED™ PAYBACK

4 сезон

9 сезон

Бесстыжие 9 сезон

Все сериалы

все сериалы на PB.wtf

RePack

FAR CRY 5

Anonymous, доброе утро, мы не успеваем собрать деньги на оплату серверов за декабрь и январь, помогите нам пожалуйста в это трудное время. В качестве благодарности мы отключим Вам всю рекламу на сайте (укажите свой ник в строку Ваше имя)!

×
  
Magnet ссылка

Желания женщин / Women Desires Part.4 [2015 г., Adult erotic music clips, WEB-DLRip 1080p, Оригинал] pb.wtf

Желания женщин через торрент pb.wtf

Размер: 3.13 GB | Добавлен: 5 лет 5 мес. назад | Торрент скачан:379 раз
Скачать  

25-07-2015 04:52 Желания женщин Скачать торрент  

Желания женщин / Women Desires Part.4
Год выпуска: 2015
Страна: All World
Жанр: Adult erotic music clips
Продолжительность: 02:31:30
Перевод: Оригинал

Описание:
Красивые музыкальные клипы с красивыми девушками...(часть 4)
01. Whitney Pretty
02. Moresebya - Sex Show
03. Alexa Day - Chefa
04. Keri - Slow Day
05. Caress 13 (Upskirt Sequence)
06. Godsmack Salsa
07. The Womb - Cigarette Kiss
08. Allura
09. EROTIC HOSTESS By Loris Gonfiotti
10. Lauren Crist - Thura
11. An appreciation of Anna
12. Cinematic Boudoir Film
13. Caress 15 (Beautiful Sequence)
14. Anneli, Bella & Nika - Like me, hug me, follow me
15. Tina - Wet Pleasures
16. Introducing Keri Artful Blue
17. Danni shows Herself
18. Emily - Pink Perfection
19. Melisa - Sweet strip
20. Veronika Wonka
21. EMS - Shae Snow
22. Sexy Erin
23. Gray & Sage - Aftermath
24. Sasha - Color of Senses
25. Julie Sun Kissed
26. Shlohmo - Bo Peep (Do U Right) Jazlyn
27. Norma A - Oily Masturbation
28. Marlo Marquise
29. Spirit For Your Love
30. Norma Joel - Megerinte
Качество: WEB-DLRip 1080p
Формат: MP4
Видео кодек: AVC
Аудио кодек: AAC
Видео: AVC, 1280x720,1920x1080,1920x960 (16:9), 29.970 fps, 2 354 Kbps (0.085 bit/pixel)
Аудио#1: AAC LC, 48.0 KHz, 2 ch, 147-256 Kbps, VBR(CBR)
скриншот   скриншот   скриншот   скриншот   скриншот   скриншот  
скриншот   скриншот   скриншот   скриншот   скриншот   скриншот  

Общее
Полное имя : C:\Раздача\Клипы\Women Desires Part.4 (2015)\01. Whitney Pretty.mp4
Формат : MPEG-4
Профиль формата : Base Media / Version 2
Идентификатор кодека : mp42
Размер файла : 115 Мбайт
Продолжительность : 6 м. 26 с.
Режим общего битрейта : Переменный
Общий поток : 2505 Кбит/сек
Дата кодирования : UTC 2015-07-06 14:53:37
Дата пометки : UTC 2015-07-06 14:53:37

Видео
Идентификатор : 1
Формат : AVC
Формат/Информация : Advanced Video Codec
Профиль формата : High@L3.1
Параметр CABAC формата : Да
Параметр ReFrames формата : 5 кадров
Идентификатор кодека : avc1
Идентификатор кодека/Информация : Advanced Video Coding
Продолжительность : 6 м. 26 с.
Битрейт : 2354 Кбит/сек
Ширина : 1280 пикселей
Высота : 720 пикселей
Соотношение сторон : 16:9
Режим частоты кадров : Постоянный
Частота кадров : 29,970 кадров/сек
Цветовое пространство : YUV
Субдискретизация насыщенности : 4:2:0
Битовая глубина : 8 бит
Тип развёртки : Прогрессивная
Бит/(Пиксели*Кадры) : 0.085
Размер потока : 108 Мбайт (94%)
Библиотека кодирования : x264 core 146 r11M 121396c
Настройки программы : cabac=1 / ref=5 / deblock=1:0:0 / analyse=0x3:0x113 / me=umh / subme=8 / psy=1 / psy_rd=1.00:0.00 / mixed_ref=1 / me_range=16 / chroma_me=1 / trellis=1 / 8x8dct=1 / cqm=0 / deadzone=21,11 / fast_pskip=1 / chroma_qp_offset=-2 / threads=84 / lookahead_threads=5 / sliced_threads=0 / nr=0 / decimate=1 / interlaced=0 / bluray_compat=0 / stitchable=1 / constrained_intra=0 / bframes=3 / b_pyramid=2 / b_adapt=2 / b_bias=0 / direct=3 / weightb=1 / open_gop=0 / weightp=2 / keyint=infinite / keyint_min=29 / scenecut=40 / intra_refresh=0 / rc_lookahead=50 / rc=crf / mbtree=1 / crf=20.0 / qcomp=0.60 / qpmin=5 / qpmax=69 / qpstep=4 / vbv_maxrate=2750 / vbv_bufsize=7500 / crf_max=0.0 / nal_hrd=none / filler=0 / ip_ratio=1.40 / aq=1:1.00
Дата кодирования : UTC 2015-07-06 14:53:37
Дата пометки : UTC 2015-07-06 14:53:37
Основные цвета : BT.709
Характеристики трансфера : BT.709
Коэффициенты матрицы : BT.709

Аудио
Идентификатор : 2
Формат : AAC
Формат/Информация : Advanced Audio Codec
Профиль формата : LC
Идентификатор кодека : 40
Продолжительность : 6 м. 25 с.
Вид битрейта : Переменный
Битрейт : 147 Кбит/сек
Каналы : 2 канала
Расположение каналов : Front: L R
Частота : 48,0 КГц
Метод сжатия : С потерями
Размер потока : 6,76 Мбайт (6%)
Дата кодирования : UTC 2015-07-06 14:53:37
Дата пометки : UTC 2015-07-06 14:53:37

Общее
Полное имя : C:\Раздача\Клипы\Women Desires Part.4 (2015)\04. Keri - Slow Day.mp4
Формат : MPEG-4
Профиль формата : Base Media / Version 2
Идентификатор кодека : mp42
Размер файла : 130 Мбайт
Продолжительность : 3 м. 55 с.
Режим общего битрейта : Переменный
Общий поток : 4646 Кбит/сек
Дата кодирования : UTC 2015-07-01 02:26:30
Дата пометки : UTC 2015-07-01 02:26:30

Видео
Идентификатор : 1
Формат : AVC
Формат/Информация : Advanced Video Codec
Профиль формата : High@L4.0
Параметр CABAC формата : Да
Параметр ReFrames формата : 4 кадра
Идентификатор кодека : avc1
Идентификатор кодека/Информация : Advanced Video Coding
Продолжительность : 3 м. 55 с.
Битрейт : 4386 Кбит/сек
Ширина : 1920 пикселей
Высота : 1080 пикселей
Соотношение сторон : 16:9
Режим частоты кадров : Постоянный
Частота кадров : 29,970 кадров/сек
Цветовое пространство : YUV
Субдискретизация насыщенности : 4:2:0
Битовая глубина : 8 бит
Тип развёртки : Прогрессивная
Бит/(Пиксели*Кадры) : 0.071
Размер потока : 123 Мбайт (94%)
Библиотека кодирования : x264 core 146 r11M 121396c
Настройки программы : cabac=1 / ref=4 / deblock=1:0:0 / analyse=0x3:0x113 / me=umh / subme=8 / psy=1 / psy_rd=1.00:0.00 / mixed_ref=1 / me_range=16 / chroma_me=1 / trellis=1 / 8x8dct=1 / cqm=0 / deadzone=21,11 / fast_pskip=1 / chroma_qp_offset=-2 / threads=72 / lookahead_threads=8 / sliced_threads=0 / nr=0 / decimate=1 / interlaced=0 / bluray_compat=0 / stitchable=1 / constrained_intra=0 / bframes=3 / b_pyramid=2 / b_adapt=2 / b_bias=0 / direct=3 / weightb=1 / open_gop=0 / weightp=2 / keyint=infinite / keyint_min=29 / scenecut=40 / intra_refresh=0 / rc_lookahead=50 / rc=crf / mbtree=1 / crf=20.0 / qcomp=0.60 / qpmin=5 / qpmax=69 / qpstep=4 / vbv_maxrate=4950 / vbv_bufsize=13500 / crf_max=0.0 / nal_hrd=none / filler=0 / ip_ratio=1.40 / aq=1:1.00
Дата кодирования : UTC 2015-07-01 02:26:30
Дата пометки : UTC 2015-07-01 02:26:30
Основные цвета : BT.709
Характеристики трансфера : BT.709
Коэффициенты матрицы : BT.709

Аудио
Идентификатор : 2
Формат : AAC
Формат/Информация : Advanced Audio Codec
Профиль формата : LC
Идентификатор кодека : 40
Продолжительность : 3 м. 55 с.
Вид битрейта : Переменный
Битрейт : 256 Кбит/сек
Каналы : 2 канала
Расположение каналов : Front: L R
Частота : 48,0 КГц
Метод сжатия : С потерями
Размер потока : 7,19 Мбайт (6%)
Дата кодирования : UTC 2015-07-01 02:26:30
Дата пометки : UTC 2015-07-01 02:26:30

pb.wtf



Скачать Желания женщин через торрент http://pic.kartinco.top/images/11/34su6.jpg Скачать фильм Желания женщин через торрент бесплантно в хорошем качестве Описание: Красивые музыкальные клипы с красивыми девушками...(часть 4) Whitney Pretty Moresebya - Sex Show Alexa Day - Chefa ... 9.1 10 21
Info! Золотая раздача, скачанное не засчитывается.
Торрент: Зарегистрирован [2015-07-25 04:52] · скачан: 379 раз
Статус: √ проверено
Размер: 3.13 GB
Как cкачать? Как скачать Желания женщин через торрент | UTorrent

28-11-2019 20:33  

Отключить всю рекламу на сайте

25-07-2015 08:01 Желания женщин Скачать торрент  

Ну ЕКЛМН ))))))pb.wtf



25-07-2015 16:03 Желания женщин Скачать торрент  

rstreetr писал(а):

Ну ЕКЛМН ))))))

Переведи!pb.wtf



27-07-2015 05:39 Желания женщин Скачать торрент  

НИШТЯК)))!!!pb.wtf



    Дорогой пользователь! Огромная просьба, поблагодарите релизера, оцените раздачу и оставьте свои комментарий, если Вы скачали Желания женщин через торрент бесплатно! Внесите свою лепту в развитие PiratBit!
    Комментировать посты могут только пользователи прошедшие не сложную регистрацию
    Показать сообщения:    

    Желания женщин через торрент
    Скачать бесплатно Желания женщин
    Желания женщин скачать торрент
    Желания женщин смотреть онлайн
    Cкачать фильм Желания женщин бесплатно
    Желания женщин скачать торрент в хорошем качестве
    Желания женщин смотреть онлайн бесплатно в хорошем качестве


    Вы не можете начинать темы
    Вы не можете отвечать на сообщения
    Вы не можете редактировать свои сообщения
    Вы не можете удалять свои сообщения
    Вы не можете голосовать в опросах
    Вы не можете прикреплять файлы к сообщениям
    Вы можете скачивать файлы