Достать ножи: Стеклянная луковица

MVO

Добыча

Дубляж

Уэнсдэй

1 сезон

Тор

Дубляж

13 клиническая

1 сезон

Жестокая ночь

MVO

Одни из нас

1 сезон

Deluxe

pack

Рекомендуем

30

Пиратка

ВАЖНО

ВАЖНО

Ghostwire

Пиратка

jed

RePack

nioh2

RePack

RDR2

RePack

NEED FOR SPEED™ PAYBACK

RePack

скачать торрент

Кинопоиск HD

Острые козырьки 6 сезон

6 сезон

FAR CRY 6

RePack

скачать торрент

Лицензия

скачать торрент

MVO

1

1 сезон

скачать торрент

1 сезон

скачать торрент

Лицензия

  

Киллер Джо / Killer Joe (Unrated) (Уильям Фридкин / William Friedkin) [2011, триллер, драма, криминал, BDRip 1080p от _denis_100 / NNNB] Дубляж, DVO, AVO

Киллер Джо через торрент pb.wtf

Размер: 8.22 GB | Добавлен: 6 лет 8 мес. назад | Торрент скачан:118 раз
Смотреть онлайн | Скачать | Поддержите нас   

25-07-2015 14:58 Киллер Джо Скачать торрент  

Киллер Джо / Killer Joe (Unrated)
«Убийство ещё не было таким приятным на вкус»


Год выпуска: 2011
Страна: США
Жанр: триллер, драма, криминал
Продолжительность: 01:42:59
Перевод: Дублированный - [Лицензия], Любительский двухголосый, Авторский одноголосый
Субтитры: русские (Mokum), русские (Jbravo), русские (ak79), английские (full), английские (SDH)
Режиссер: Уильям Фридкин
В ролях: Мэттью МакКонахи , Эмиль Хирш , Джуно Темпл , Томас Хейден Чёрч , Джина Гершон , Марк Маколей , Грэйлен Брайант Бэнкс , Кэрол Саттон , Дэнни Эппер , Джефф Галпин , Скотт А. Мартин , Грегори С. Башо
Описание:
Мелкий драгдиллер Крис замышляет убийство матери, чтобы получить деньги по страховке, и по этому случаю он при согласии отца, сестры и мачехи нанимает киллера по имени Джо Купер.

R - Лицам до 17 лет обязательно присутствие взрослого
Качество: BDRip 1080p
Контейнер (Расширение): MKV
Видео: 1920x1036, 9060 Кбит/сек, 23,976 кадр/сек, 0,190 Бит/[Пиксели*Кадры]
Аудио №1: русский / AC3 / 5.1 / 48 kHz / 448 kbps / 16 bit |Дублированный|
Аудио №2: русский / AC3 / 5.1 / 48 kHz / 640 kbps / 16 bit |Авторский одноголосый, Юрий Живов|
Аудио №3: русский / AC3 / 5.1 / 48 kHz / 640 kbps / 16 bit |Любительский двухголосый, ViruseProject|
Аудио №4: английский / AC3 / 5.1 / 48 kHz / 640 kbps / 16 bit
Навигация по главам(Чаптеры): естьАвтор рипа: Сообщество:
Авторский перевод Юрия Живого отдельно:
  • Фильм был выпущен на экраны кинотеатров с рейтингом NC-17. Но специально для релиза на носителях его отредактировали под рейтинг R.
  • Ближе к концу фильма Джо говорит Крис фразу «caveat emptor», что в переводе с латыни означает «пусть покупатель будет бдителен».
  • В одной сцене Дотти спрашивает о том, такой же ли Джо детектив, как и детектив Магнум, или нет. У Мэттью МакКонахи был шанс сыграть детектива Магнума в крупнобюджетном ремейке одноименного сериала в 2007 году, но к 2012-му проект заглох.
  • «Киллер Джо» - первая пьеса Трэйси Леттса, написанная им в 1991 году.
  • Джина Гершон призналась в интервью, что в фильме носила парик на лобке. И перед съемками, когда привезли множество разновидностей этих париков, она выбрала один из них и назвала его Бертой.
  • Хотя с персонажей Рекса и Адель начинается вся история, в течение всего фильма они остаются в стороне от основного сюжета. Адель видно только раз, после того как ее убивают, а Рекса показывают в двух коротких сценах.
  • Когда Шарла просматривает фотографии, на крупном плане она их держит в двух руках. Когда камера меняет ракурс, она держит в одной руке пачку фотографий, а в другой - телефон.
  • Во время сцены с поездом, когда показывают Криса и Дотти, его шрамы на лице пропадают.
  • Когда на Криса нападают двое байкеров, ясно видно, что их удары не достают его.
  • Когда Крис возвращается домой, после того как бандиты Диггера избили его, его зубы абсолютно белые, а при крупном плане они все вымазаны кровью.
  • Код:

    Format                                   : Matroska
    Format version                           : Version 2
    File size                                : 8.22 GiB
    Duration                                 : 1h 42mn
    Overall bit rate                         : 11.4 Mbps
    Movie name                               : Killer Joe.(2011).BDRip.1080p.[denis100].Unrated
    Encoded date                             : UTC 2016-05-17 06:58:42
    Writing application                      : mkvmerge v5.8.0 ('No Sleep / Pillow') built on Sep  2 2012 15:37:04
    Writing library                          : libebml v1.2.3 + libmatroska v1.3.0

    Video
    ID                                       : 1
    Format                                   : AVC
    Format/Info                              : Advanced Video Codec
    Format profile                           : [email protected]
    Format settings, CABAC                   : Yes
    Format settings, ReFrames                : 4 frames
    Codec ID                                 : V_MPEG4/ISO/AVC
    Duration                                 : 1h 42mn
    Bit rate                                 : 9 060 Kbps
    Width                                    : 1 920 pixels
    Height                                   : 1 036 pixels
    Display aspect ratio                     : 1.853
    Frame rate                               : 23.976 fps
    Color space                              : YUV
    Chroma subsampling                       : 4:2:0
    Bit depth                                : 8 bits
    Scan type                                : Progressive
    Bits/(Pixel*Frame)                       : 0.190
    Stream size                              : 6.35 GiB (77%)
    Title                                    : Killer Joe.(2011).BDRip.1080p.[denis100].Unrated
    Writing library                          : x264 core 146 r2538 121396c
    Encoding settings                        : cabac=1 / ref=4 / deblock=1:-3:-2 / analyse=0x3:0x133 / me=umh / subme=11 / psy=1 / psy_rd=1.00:0.00 / mixed_ref=1 / me_range=32 / chroma_me=1 / trellis=2 / 8x8dct=1 / cqm=0 / deadzone=21,11 / fast_pskip=0 / chroma_qp_offset=-2 / threads=6 / lookahead_threads=1 / sliced_threads=0 / nr=0 / decimate=1 / interlaced=0 / bluray_compat=0 / constrained_intra=0 / bframes=9 / b_pyramid=2 / b_adapt=2 / b_bias=0 / direct=3 / weightb=1 / open_gop=0 / weightp=2 / keyint=240 / keyint_min=23 / scenecut=40 / intra_refresh=0 / rc=2pass / mbtree=0 / bitrate=9060 / ratetol=1.0 / qcomp=0.60 / qpmin=0 / qpmax=69 / qpstep=4 / cplxblur=20.0 / qblur=0.5 / ip_ratio=1.40 / pb_ratio=1.30 / aq=1:1.00
    Language                                 : English
    Default                                  : Yes
    Forced                                   : No

    Audio #1
    ID                                       : 2
    Format                                   : AC-3
    Format/Info                              : Audio Coding 3
    Mode extension                           : CM (complete main)
    Codec ID                                 : A_AC3
    Duration                                 : 1h 42mn
    Bit rate mode                            : Constant
    Bit rate                                 : 448 Kbps
    Channel(s)                               : 6 channels
    Channel positions                        : Front: L C R, Side: L R, LFE
    Sampling rate                            : 48.0 KHz
    Bit depth                                : 16 bits
    Compression mode                         : Lossy
    Stream size                              : 330 MiB (4%)
    Title                                    : Дубляж
    Language                                 : Russian
    Default                                  : Yes
    Forced                                   : No

    Audio #2
    ID                                       : 3
    Format                                   : AC-3
    Format/Info                              : Audio Coding 3
    Mode extension                           : CM (complete main)
    Codec ID                                 : A_AC3
    Duration                                 : 1h 42mn
    Bit rate mode                            : Constant
    Bit rate                                 : 640 Kbps
    Channel(s)                               : 6 channels
    Channel positions                        : Front: L C R, Side: L R, LFE
    Sampling rate                            : 48.0 KHz
    Bit depth                                : 16 bits
    Compression mode                         : Lossy
    Stream size                              : 471 MiB (6%)
    Title                                    : AVO, Живов
    Language                                 : Russian
    Default                                  : No
    Forced                                   : No

    Audio #3
    ID                                       : 4
    Format                                   : AC-3
    Format/Info                              : Audio Coding 3
    Mode extension                           : CM (complete main)
    Codec ID                                 : A_AC3
    Duration                                 : 1h 42mn
    Bit rate mode                            : Constant
    Bit rate                                 : 640 Kbps
    Channel(s)                               : 6 channels
    Channel positions                        : Front: L C R, Side: L R, LFE
    Sampling rate                            : 48.0 KHz
    Bit depth                                : 16 bits
    Compression mode                         : Lossy
    Stream size                              : 471 MiB (6%)
    Title                                    : DVO (ViruseProject)
    Language                                 : Russian
    Default                                  : No
    Forced                                   : No

    Audio #4
    ID                                       : 5
    Format                                   : AC-3
    Format/Info                              : Audio Coding 3
    Mode extension                           : CM (complete main)
    Codec ID                                 : A_AC3
    Duration                                 : 1h 42mn
    Bit rate mode                            : Constant
    Bit rate                                 : 640 Kbps
    Channel(s)                               : 6 channels
    Channel positions                        : Front: L C R, Side: L R, LFE
    Sampling rate                            : 48.0 KHz
    Bit depth                                : 16 bits
    Compression mode                         : Lossy
    Stream size                              : 471 MiB (6%)
    Language                                 : English
    Default                                  : No
    Forced                                   : No

    Text #1
    ID                                       : 6
    Format                                   : UTF-8
    Codec ID                                 : S_TEXT/UTF8
    Codec ID/Info                            : UTF-8 Plain Text
    Title                                    : Mokum
    Language                                 : Russian
    Default                                  : No
    Forced                                   : No

    Text #2
    ID                                       : 7
    Format                                   : UTF-8
    Codec ID                                 : S_TEXT/UTF8
    Codec ID/Info                            : UTF-8 Plain Text
    Title                                    : Jbravo
    Language                                 : Russian
    Default                                  : No
    Forced                                   : No

    Text #3
    ID                                       : 8
    Format                                   : UTF-8
    Codec ID                                 : S_TEXT/UTF8
    Codec ID/Info                            : UTF-8 Plain Text
    Title                                    : ak79
    Language                                 : Russian
    Default                                  : No
    Forced                                   : No

    Text #4
    ID                                       : 9
    Format                                   : UTF-8
    Codec ID                                 : S_TEXT/UTF8
    Codec ID/Info                            : UTF-8 Plain Text
    Title                                    : full
    Language                                 : English
    Default                                  : No
    Forced                                   : No

    Text #5
    ID                                       : 10
    Format                                   : UTF-8
    Codec ID                                 : S_TEXT/UTF8
    Codec ID/Info                            : UTF-8 Plain Text
    Title                                    : SDH
    Language                                 : English
    Default                                  : No
    Forced                                   : No

    Menu
    00:00:00.000                             : :Chapter 01
    00:06:01.361                             : :Chapter 02
    00:13:19.799                             : :Chapter 03
    00:20:49.039                             : :Chapter 04
    00:26:16.157                             : :Chapter 05
    00:33:22.083                             : :Chapter 06
    00:38:37.815                             : :Chapter 07
    00:46:41.465                             : :Chapter 08
    00:52:16.007                             : :Chapter 09
    00:56:12.160                             : :Chapter 10
    01:07:01.726                             : :Chapter 11
    01:11:46.051                             : :Chapter 12
    01:18:13.063                             : :Chapter 13
    01:29:14.849                             : :Chapter 14
    01:31:46.375                             : :Chapter 15
    01:34:47.431                             : :Chapter 16

    x264 [info]: frame I:919 Avg QP:14.22 size:259991
    x264 [info]: frame P:33629 Avg QP:16.91 size: 85713
    x264 [info]: frame B:113599 Avg QP:18.70 size: 34089



    Скачать Киллер Джо через торрент http://i79.fastpic.ru/big/2016/0517/5b/3bf509d632fa8fb20aac91ae6dd58f5b.png Скачать, смотреть онлайн Киллер Джо бесплантно в хорошем качестве Описание:Мелкий драгдиллер Крис замышляет убийство матери, чтобы получить деньги по страховке, и по этому случаю он при согласии отца, ... 9.8 10 17
    Info! Золотая раздача, скачанное не засчитывается.
    Торрент: Зарегистрирован [2016-05-17 07:26] · скачан: 118 раз
    Статус: √ проверено
    Размер: 8.22 GB
    Как cкачать? Как скачать Киллер Джо через торрент | UTorrent




    Последний раз редактировалось: _denis_100 (2016-05-17 07:35), всего редактировалось 2 раз(а)

    28-11-2019 20:33  


    Отключить вcю реклaмy на сайте, в т.ч. и в плеере онлайн просмотра!

    25-07-2015 15:13 Киллер Джо Скачать торрент  

    хороший такой фильмец



    25-07-2015 15:55 Киллер Джо Скачать торрент  

    я знаю откуда обложка ))



    25-07-2015 16:08 Киллер Джо Скачать торрент  

    Фильм вообще отмороженный наглухо! sarcastic Люблю такие!



    25-07-2015 16:57 Киллер Джо Скачать торрент  

    nikolaygurubrain писал(а):

    я знаю откуда обложка ))

    и откуда ?



    17-05-2016 07:29 Киллер Джо Скачать торрент  

    обновил, добавил Авторский перевод Юрия Живого



      Дорогой пользователь! Огромная просьба, поблагодарите релизера, оцените раздачу и оставьте свои комментарий, если Вы скачали Киллер Джо через торрент бесплатно!!
      Комментировать посты могут только пользователи прошедшие не сложную регистрацию
      Показать сообщения:    


      Киллер Джо через торрент
      Скачать бесплатно Киллер Джо
      Киллер Джо скачать торрент
      Киллер Джо смотреть онлайн
      Cкачать фильм Киллер Джо бесплатно
      Киллер Джо скачать торрент в хорошем качестве
      Киллер Джо смотреть онлайн бесплатно в хорошем качестве
      Вы не можете начинать темы
      Вы не можете отвечать на сообщения
      Вы не можете редактировать свои сообщения
      Вы не можете удалять свои сообщения
      Вы не можете голосовать в опросах
      Вы не можете прикреплять файлы к сообщениям
      Вы можете скачивать файлы
      Киллер Джо / Killer Joe [2011, триллер, драма, криминал, BDRip 1080p от _denis_100 / NNNB] Дубляж, DVO, AVO смотреть онлайн, скачать торрент picoco.icu