Ссылка на приватное зеркало нашего сайта всего за 1$. Внимание количество ограничено!!!

2 сезон

iTunes

1 сезон

1

iTunes

iTunes

iTunes

1 сезон

RePack

30

ИГРА 18+

pack

ВАЖНО

!!Акция!!

Alien_RageХит недели

RePack

MK11
pack

Забери бонус

RePack

jed

!!Акция!!

Alien_Rage

RePack

fifa19

RePack

Assassins Creed: Odyssey

RePack

NEED FOR SPEED™ PAYBACK

4 сезон

9 сезон

Бесстыжие 9 сезон

Все сериалы

все сериалы на PB.wtf

RePack

FAR CRY 5
  

Фронтера / Frontera (Майкл Берри / Michael Berry) [2014, США, драма, BDRip 720p, Профессиональный многоголосый] pb.wtf

Фронтера через торрент pb.wtf

Размер: 4.58 GB | Добавлен: 5 лет 3 мес. назад | Торрент скачан:133 раза
Скачать  

26-07-2015 00:44 Фронтера Скачать торрент  

Фронтера / Frontera


Год выпуска: 2014
Страна: США
Жанр: драма
Продолжительность: 01:42:56
Перевод: Профессиональный многоголосый
Субтитры: English, Spanish, French
Режиссер: Майкл Берри / Michael Berry
В ролях:


Эд Харрис (Roy), Майкл Пенья (Miguel), Ева Лонгория (Paulina), Эми Мэдиган (Olivia), Аден Янг (Sheriff Randall Hunt), Майкл Рэй Эскамиллья (Jose), Даниэль Сакапа (Abuelo), Тенайа (Nana), Сет Эдкинс (Sean), Ивэн Адриан (Brad), Тони Форд (Kevin), Мишель Риос (Flora)

Описание:
Убита жена бывшего шерифа Аризоны. Все указывает на причастность к убийству мексиканца, нелегально въехавшего на территорию США. Муж убитой решает объединиться с действующим шерифом, чтобы докопаться до истины...

Рейтинг:

MPAA: PG-13 - Детям до 13 лет просмотр не желателен
Качество: BDRip 720p
Формат: MKV
Видео кодек:AVC
Аудио кодек:AC3
Видео: AVC, 1280x534 (2.40:1), 5404 kbps, 23,976 fps, 0,330 bpp
Аудио №1: русский / AC3 / 2.0 / 48 kHz / 192 kbps / 16 bit - Профессиональный многоголосый [Официальный]
Аудио №2: английский / AC3 / 5.1 / 48 kHz / 640 kbps / 16 bit - (оригинал)


General
Unique ID : 215079094502699297645775070225427757260 (0xA1CEBA12EFAD550CB08A9646882E78CC)
Complete name : D:\_uTorrent_\FP0HtePa.2014.P.BDRip.720p.mkv
Format : Matroska
Format version : Version 2
File size : 4.58 GiB
Duration : 1h 42mn
Overall bit rate : 6 363 Kbps
Encoded date : UTC 2015-07-25 15:40:50
Writing application : mkvmerge v8.2.0 ('World of Adventure') 64bit
Writing library : libebml v1.3.1 + libmatroska v1.4.2

Video
ID : 1
Format : AVC
Format/Info : Advanced Video Codec
Format profile : High@L4.1
Format settings, CABAC : Yes
Format settings, ReFrames : 5 frames
Codec ID : V_MPEG4/ISO/AVC
Duration : 1h 42mn
Bit rate : 5 404 Kbps
Width : 1 280 pixels
Height : 534 pixels
Display aspect ratio : 2.40:1
Frame rate : 23.976 fps
Color space : YUV
Chroma subsampling : 4:2:0
Bit depth : 8 bits
Scan type : Progressive
Bits/(Pixel*Frame) : 0.330
Stream size : 3.89 GiB (85%)
Title : Frontera.2014.720p.BluRay.DTS.x264-HDAccees
Writing library : x264 core 142 r2479kMod dd79a61
Encoding settings : cabac=1 / ref=5 / deblock=1:-3:-3 / analyse=0x3:0x133 / me=umh / subme=10 / psy=1 / fade_compensate=0.00 / psy_rd=1.04:0.00 / mixed_ref=1 / me_range=24 / chroma_me=1 / trellis=2 / 8x8dct=1 / cqm=0 / deadzone=21,11 / fast_pskip=1 / chroma_qp_offset=-2 / threads=12 / lookahead_threads=2 / sliced_threads=0 / nr=0 / decimate=1 / interlaced=0 / bluray_compat=0 / constrained_intra=0 / fgo=0 / bframes=9 / b_pyramid=2 / b_adapt=2 / b_bias=0 / direct=3 / weightb=1 / open_gop=0 / weightp=2 / keyint=230 / keyint_min=23 / scenecut=40 / intra_refresh=0 / rc_lookahead=40 / rc=crf / mbtree=0 / crf=15.1000 / qcomp=0.75 / qpmin=0 / qpmax=69 / qpstep=4 / vbv_maxrate=50000 / vbv_bufsize=62500 / crf_max=0.0 / nal_hrd=none / filler=0 / ip_ratio=1.30 / pb_ratio=1.20 / aq=2:0.85
Language : English
Default : Yes
Forced : No
Matrix coefficients : BT.709-5, BT.1361, IEC 61966-2-4 709, SMPTE RP177

Audio #1
ID : 2
Format : AC-3
Format/Info : Audio Coding 3
Mode extension : CM (complete main)
Codec ID : A_AC3
Duration : 1h 42mn
Bit rate mode : Constant
Bit rate : 192 Kbps
Channel(s) : 2 channels
Channel positions : Front: L R
Sampling rate : 48.0 KHz
Bit depth : 16 bits
Compression mode : Lossy
Stream size : 141 MiB (3%)
Language : Russian
Default : Yes
Forced : No

Audio #2
ID : 3
Format : AC-3
Format/Info : Audio Coding 3
Mode extension : CM (complete main)
Codec ID : A_AC3
Duration : 1h 42mn
Bit rate mode : Constant
Bit rate : 640 Kbps
Channel(s) : 6 channels
Channel positions : Front: L C R, Side: L R, LFE
Sampling rate : 48.0 KHz
Bit depth : 16 bits
Compression mode : Lossy
Stream size : 471 MiB (10%)
Language : English
Default : No
Forced : No

Text #1
ID : 4
Format : PGS
Muxing mode : zlib
Codec ID : S_HDMV/PGS
Codec ID/Info : The same subtitle format used on BDs/HD-DVDs
Language : English
Default : No
Forced : No

Text #2
ID : 5
Format : PGS
Muxing mode : zlib
Codec ID : S_HDMV/PGS
Codec ID/Info : The same subtitle format used on BDs/HD-DVDs
Language : Spanish
Default : No
Forced : No

Text #3
ID : 6
Format : PGS
Muxing mode : zlib
Codec ID : S_HDMV/PGS
Codec ID/Info : The same subtitle format used on BDs/HD-DVDs
Language : French
Default : No
Forced : No

Menu
00:00:00.000 : en:00:00:00.000
00:08:11.241 : en:00:08:11.241
00:16:32.617 : en:00:16:32.617
00:25:46.754 : en:00:25:46.754
00:33:47.442 : en:00:33:47.442
00:42:36.929 : en:00:42:36.929
00:51:47.980 : en:00:51:47.980
01:00:33.338 : en:01:00:33.338
01:07:36.261 : en:01:07:36.261
01:16:15.196 : en:01:16:15.196
01:24:11.797 : en:01:24:11.797
01:37:24.756 : en:01:37:24.756

[/code]
pb.wtf



Скачать Фронтера через торрент http://i71.fastpic.ru/big/2015/0726/7e/7b3b679a5109720b0f4ac4dadb1f4d7e.png Скачать фильм Фронтера через торрент бесплантно в хорошем качестве Описание: Убита жена бывшего шерифа Аризоны. Все указывает на причастность к убийству мексиканца, нелегально въехавшего на территорию США. ... 9.9 10 12
Info! Золотая раздача, скачанное не засчитывается.
Торрент: Зарегистрирован [2015-07-26 00:44] · скачан: 133 раз
Статус: √ проверено
Размер: 4.58 GB
Как cкачать? Как скачать Фронтера через торрент | qTorrent

% Раздел Тема Автор DL S | L
T Фильмы 2014 [DVDrip, WEB-DLRip, HDrip] [ 1.47 GB ] Фронтера / Frontera [2014 BDRip MVO+VO] Twi7ter Скачать
1 | 0

28-11-2019 20:33  

Отключить всю рекламу на сайте

    Дорогой пользователь! Огромная просьба, поблагодарите релизера, оцените раздачу и оставьте свои комментарий, если Вы скачали Фронтера через торрент бесплатно! Внесите свою лепту в развитие PiratBit!
    Комментировать посты могут только пользователи прошедшие не сложную регистрацию
    Показать сообщения:    

    Фронтера через торрент
    Скачать бесплатно Фронтера
    Фронтера скачать торрент
    Фронтера смотреть онлайн
    Cкачать фильм Фронтера бесплатно
    Фронтера скачать торрент в хорошем качестве
    Фронтера смотреть онлайн бесплатно в хорошем качестве


    Вы не можете начинать темы
    Вы не можете отвечать на сообщения
    Вы не можете редактировать свои сообщения
    Вы не можете удалять свои сообщения
    Вы не можете голосовать в опросах
    Вы не можете прикреплять файлы к сообщениям
    Вы можете скачивать файлы