Ссылка на приватное зеркало нашего сайта всего за 1$. Внимание количество ограничено!!!

2 сезон

iTunes

1 сезон

1

iTunes

iTunes

iTunes

1 сезон

RePack

30

ИГРА 18+

pack

ВАЖНО

!!Акция!!

Alien_RageХит недели

RePack

MK11
pack

Забери бонус

RePack

jed

!!Акция!!

Alien_Rage

RePack

fifa19

RePack

Assassins Creed: Odyssey

RePack

NEED FOR SPEED™ PAYBACK

4 сезон

9 сезон

Бесстыжие 9 сезон

Все сериалы

все сериалы на PB.wtf

RePack

FAR CRY 5
  

Головокружение / Vertigo (Альфред Хичкок) [1958, триллер, мелодрама, детектив, BDRip 720p by msltel] DUB, MVO pb.wtf

Головокружение через торрент pb.wtf

Размер: 5.64 GB | Добавлен: 5 лет 2 мес. назад | Торрент скачан:40 раз
Скачать  

26-07-2015 10:33 Головокружение Скачать торрент  

Название: Головокружение
Оригинальное название: Vertigo
Год выпуска: 1958
Страна: США
Жанр: триллер, мелодрама, детектив
Продолжительность: 02:08:27
Перевод: дублированный, профессиональный многоголосый

Режиссёр: Альфред Хичкок

В ролях: Джеймс Стюарт, Ким Новак, Барбара Бел Геддес, Том Хелмор, Генри Джонс, Рэймонд Бэйли, Эллен Корби, Константин Шэйн, Ли Патрик, Изабель Аналла, Джек Ано, Джон Бенсон, Маргарет Брэйтон, Пол Брайар, Жан Корбетт, Бруно Делла Сантина, Роксанн Делман, Молли Додд, Карло Дотто, Бесс Флауэрс, Джоан Гентон, Дон Джованни, Роланд Готти, Фред Грэхэм, Бак Харингтон, Альфред Хичкок, Джун Жослин, Дэвид МакЭлхаттон, Форбс Мюррэй

Описание: Скотти Фергюсон — отставной сыщик, которого не назовёшь баловнем судьбы: одинокий, оставшийся за бортом своей профессии, да ещё и страдающий патологическим страхом высоты. Бывший коллега Гейвин Элстер просит его последить за своей женой Мэделин, одержимой идеей самоубийства... Фильм снят по мотивам романа «Из мира мёртвых» (D`entre les morts, 1954), написанного совместно Пьером Буало и Томом Нарсежаком.



Качество: BDRip 720p Сравнение с исходником
Формат: MKV
Видео кодек: H.264
Аудио кодек: AC3
Видео: MPEG-4 AVC, 5074 Кбит/с, 1280x694, 23,976 кадра/с
Аудио 1: русский, AC3, 192 kbps, 2 ch, 48 kHz [дублированный]
Аудио 2: русский, AC3, 448 kbps, 6 ch, 48 kHz [профессиональный многоголосый]
Аудио 3: английский, AC3, 448 kbps, 6 ch, 48 kHz [оригинал]
Субтитры 1: русские
Субтитры 2: английские (для слабослышащих)
Оскар, 1959 год
Номинации (2):
Лучшие декорации
Лучший звук

Сан-Себастьян, 1958 год
Победитель (2):
Серебряная раковина
Приз Зулуеты за лучшую мужскую роль ( Джеймс Стюарт )
Общее
Уникальный идентификатор : 178638797353037211452088230256838412231 (0x866494B6333D7FD6B118E4E6F4BB87C7)
Полное имя : D:VideoГоловокружение.1958.BDRip.720p.mkv
Формат : Matroska
Версия формата : Version 4 / Version 2
Размер файла : 5,64 Гбайт
Продолжительность : 2 ч. 8 м.
Общий поток : 6287 Кбит/сек
Название фильма : BDRip -- STarankov
Дата кодирования : UTC 2015-07-26 09:00:06
Программа кодирования : mkvmerge v8.2.0 ('World of Adventure') 64bit
Библиотека кодирования : libebml v1.3.1 + libmatroska v1.4.2
DURATION : 02:03:52.800000000
NUMBER_OF_FRAMES : 1290
NUMBER_OF_BYTES : 75307
_STATISTICS_WRITING_APP : mkvmerge v8.2.0 ('World of Adventure') 64bit
_STATISTICS_WRITING_DATE_UTC : 2015-07-26 09:00:06
_STATISTICS_TAGS : BPS DURATION NUMBER_OF_FRAMES NUMBER_OF_BYTES

Видео
Идентификатор : 1
Формат : AVC
Формат/Информация : Advanced Video Codec
Профиль формата : High@L4.1
Параметр CABAC формата : Да
Параметр ReFrames формата : 9 кадров
Идентификатор кодека : V_MPEG4/ISO/AVC
Продолжительность : 2 ч. 8 м.
Битрейт : 5074 Кбит/сек
Ширина : 1280 пикселей
Высота : 694 пикселя
Соотношение сторон : 1,85:1
Режим частоты кадров : Постоянный
Частота кадров : 23,976 кадра/сек
Цветовое пространство : YUV
Субдискретизация насыщенности : 4:2:0
Битовая глубина : 8 бит
Тип развёртки : Прогрессивная
Бит/(Пиксели*Кадры) : 0.238
Размер потока : 4,55 Гбайт (81%)
Библиотека кодирования : x264 core 146 r2538 121396c
Настройки программы : cabac=1 / ref=9 / deblock=1:-3:-3 / analyse=0x3:0x113 / me=umh / subme=10 / psy=1 / psy_rd=1.00:0.15 / mixed_ref=1 / me_range=32 / chroma_me=1 / trellis=2 / 8x8dct=1 / cqm=0 / deadzone=21,11 / fast_pskip=1 / chroma_qp_offset=-3 / threads=6 / lookahead_threads=1 / sliced_threads=0 / nr=0 / decimate=1 / interlaced=0 / bluray_compat=0 / constrained_intra=0 / bframes=11 / b_pyramid=2 / b_adapt=2 / b_bias=0 / direct=1 / weightb=1 / open_gop=0 / weightp=2 / keyint=230 / keyint_min=23 / scenecut=40 / intra_refresh=0 / rc_lookahead=40 / rc=crf / mbtree=0 / crf=19.2 / qcomp=0.60 / qpmin=0 / qpmax=69 / qpstep=4 / vbv_maxrate=40000 / vbv_bufsize=50000 / crf_max=0.0 / nal_hrd=none / filler=0 / ip_ratio=1.40 / pb_ratio=1.30 / aq=1:1.00
Язык : English
Default : Да
Forced : Нет
DURATION : 02:08:27.533000000
NUMBER_OF_FRAMES : 184796
NUMBER_OF_BYTES : 5006673101
_STATISTICS_WRITING_APP : mkvmerge v8.2.0 ('World of Adventure') 64bit
_STATISTICS_WRITING_DATE_UTC : 2015-07-26 09:00:06
_STATISTICS_TAGS : BPS DURATION NUMBER_OF_FRAMES NUMBER_OF_BYTES

Аудио #1
Идентификатор : 2
Формат : AC-3
Формат/Информация : Audio Coding 3
Расширение режима : CM (complete main)
Параметр Endianness формата : Big
Идентификатор кодека : A_AC3
Продолжительность : 2 ч. 8 м.
Вид битрейта : Постоянный
Битрейт : 192 Кбит/сек
Каналы : 2 канала
Расположение каналов : Front: L R
Частота : 48,0 КГц
Метод сжатия : С потерями
Размер потока : 176 Мбайт (3%)
Заголовок : DUB
Язык : Russian
Default : Да
Forced : Нет

Аудио #2
Идентификатор : 3
Формат : AC-3
Формат/Информация : Audio Coding 3
Расширение режима : CM (complete main)
Параметр Endianness формата : Big
Идентификатор кодека : A_AC3
Продолжительность : 2 ч. 8 м.
Вид битрейта : Постоянный
Битрейт : 448 Кбит/сек
Каналы : 6 каналов
Расположение каналов : Front: L C R, Side: L R, LFE
Частота : 48,0 КГц
Метод сжатия : С потерями
Размер потока : 412 Мбайт (7%)
Заголовок : MVO (R5)
Язык : Russian
Default : Нет
Forced : Нет

Аудио #3
Идентификатор : 4
Формат : AC-3
Формат/Информация : Audio Coding 3
Расширение режима : CM (complete main)
Параметр Endianness формата : Big
Идентификатор кодека : A_AC3
Продолжительность : 2 ч. 8 м.
Вид битрейта : Постоянный
Битрейт : 448 Кбит/сек
Каналы : 6 каналов
Расположение каналов : Front: L C R, Side: L R, LFE
Частота : 48,0 КГц
Метод сжатия : С потерями
Размер потока : 412 Мбайт (7%)
Заголовок : Original
Язык : English
Default : Нет
Forced : Нет

Текст #1
Идентификатор : 5
Формат : UTF-8
Идентификатор кодека : S_TEXT/UTF8
Идентификатор кодека/Информация : UTF-8 Plain Text
Заголовок : русский
Язык : Russian
Default : Нет
Forced : Нет

Текст #2
Идентификатор : 6
Формат : UTF-8
Идентификатор кодека : S_TEXT/UTF8
Идентификатор кодека/Информация : UTF-8 Plain Text
Заголовок : английский (для слабослышащих)
Язык : English
Default : Нет
Forced : Нет
pb.wtf



Скачать Головокружение через торрент http://i70.fastpic.ru/big/2015/0726/2d/9ea7bcea5afd8e8d485447207dccda2d.jpg Скачать фильм Головокружение через торрент бесплантно в хорошем качестве Описание: Скотти Фергюсон — отставной сыщик, которого не назовёшь баловнем судьбы: одинокий, оставшийся за бортом своей профессии, да ещё и ... 10 10 5
Info! Золотая раздача, скачанное не засчитывается.
Торрент: Зарегистрирован [2015-07-26 10:33] · скачан: 40 раз
Статус: √ проверено
Размер: 5.64 GB
Как cкачать? Как скачать Головокружение через торрент | qTorrent

% Раздел Тема Автор DL S | L
Фильмы [HD 720p, 1080p] (Хороший звук DUB, MVO) [ 15.69 GB ] Головокружение / Vertigo [1958 BDRip 1080p by msltel] DUB MVO msltel Скачать
1 | 0
Фильмы до 2000 г. [ 3.38 GB ] Головокружение / Vertigo [1958 BDRip AVC by msltel] DUB MVO msltel Скачать
1 | 0

28-11-2019 20:33  

Отключить всю рекламу на сайте

    Дорогой пользователь! Огромная просьба, поблагодарите релизера, оцените раздачу и оставьте свои комментарий, если Вы скачали Головокружение через торрент бесплатно! Внесите свою лепту в развитие PiratBit!
    Комментировать посты могут только пользователи прошедшие не сложную регистрацию
    Показать сообщения:    

    Головокружение через торрент
    Скачать бесплатно Головокружение
    Головокружение скачать торрент
    Головокружение смотреть онлайн
    Cкачать фильм Головокружение бесплатно
    Головокружение скачать торрент в хорошем качестве
    Головокружение смотреть онлайн бесплатно в хорошем качестве


    Вы не можете начинать темы
    Вы не можете отвечать на сообщения
    Вы не можете редактировать свои сообщения
    Вы не можете удалять свои сообщения
    Вы не можете голосовать в опросах
    Вы не можете прикреплять файлы к сообщениям
    Вы можете скачивать файлы