Ссылка на приватное зеркало нашего сайта всего за 1$. Внимание количество ограничено!!!

2 сезон

iTunes

1 сезон

1

iTunes

iTunes

iTunes

1 сезон

RePack

30

ИГРА 18+

pack

ВАЖНО

!!Акция!!

Alien_RageХит недели

RePack

MK11
pack

Забери бонус

RePack

jed

!!Акция!!

Alien_Rage

RePack

fifa19

RePack

Assassins Creed: Odyssey

RePack

NEED FOR SPEED™ PAYBACK

4 сезон

9 сезон

Бесстыжие 9 сезон

Все сериалы

все сериалы на PB.wtf

RePack

FAR CRY 5
  

Солёное поле боя / Salting the Battlefield (Дэвид Хэа) [2014, драма, криминал, детектив, BDRip AVC by msltel] VO pb.wtf

Солёное поле боя через торрент pb.wtf

Размер: 2 GB | Добавлен: 5 лет 3 мес. назад | Торрент скачан:73 раза
Скачать  

26-07-2015 12:26 Солёное поле боя Скачать торрент  

Название: Солёное поле боя
Оригинальное название: Salting the Battlefield
Год выпуска: 2014
Страна: Великобритания
Жанр: драма, криминал, детектив
Продолжительность: 01:36:44
Перевод: любительский одноголосый

Режиссёр: Дэвид Хэа

В ролях: Рэйф Файнс, Анна Бёгер, Шазад Латиф, Фелисити Джонс, Джеймс МакАрдл, Билл Найи, Саския Ривз, Дэниэл Райан, Лиэнн Бест, Джуди Дэвис, Хелена Бонем Картер, Юэн Бремнер, Оливия Уильямс, Кейт Бёрдетт, Руперт Грейвз, Георг Ленц, Пип Картер, Сан Шелла, Марк Уингетт, Ричард Лоуренс, Малкольм Синклер, Валерия Веро, Ласко Аткинс, Джон Дагган, Торстон Мандерлей

Описание: В центре сюжета детективной драмы два спецагента Джонни Уоррикер и Марго Тирел, которые находятся в Европе в бегах. По их следу идёт МИ-6. Они понимают, что так не может продолжаться всю жизнь и осознают, что их вот-вот могут обнаружить. Единственный способ разрешить эту дилемму — это вернуться в Великобританию и встретиться с премьер-министром... Третий фильм (Страница 8, Теркс и Кайкос) трилогии о Джонни Уоррикере - офицере разведки MI5.



Качество: BDRip AVC Сравнение с исходником
Формат: MKV
Видео кодек: H.264
Аудио кодек: AC3
Видео: MPEG-4 AVC, 2005 Кбит/с, 1024x428, 23,976 кадра/с
Аудио 1: русский, AC3, 448 kbps, 2 ch, 48 kHz [любительский одноголосый, Семён Ващенко]
Аудио 2: английский, AC3, 448 kbps, 6 ch, 48 kHz [оригинал]
Общее
Уникальный идентификатор : 199871204181895327165956094341491035402 (0x965DCB30EFCB718088F38D3E15298D0A)
Полное имя : D:VideoСолёное поле боя.2014.BDRip.AVC.mkv
Формат : Matroska
Версия формата : Version 4 / Version 2
Размер файла : 2,00 Гбайт
Продолжительность : 1 ч. 36 м.
Общий поток : 2960 Кбит/сек
Название фильма : BDRip -- STarankov
Дата кодирования : UTC 2015-07-26 10:05:27
Программа кодирования : mkvmerge v8.2.0 ('World of Adventure') 64bit
Библиотека кодирования : libebml v1.3.1 + libmatroska v1.4.2
DURATION : 01:36:44.864000000
NUMBER_OF_FRAMES : 181402
NUMBER_OF_BYTES : 325072384
_STATISTICS_WRITING_APP : mkvmerge v8.2.0 ('World of Adventure') 64bit
_STATISTICS_WRITING_DATE_UTC : 2015-07-26 10:05:27
_STATISTICS_TAGS : BPS DURATION NUMBER_OF_FRAMES NUMBER_OF_BYTES

Видео
Идентификатор : 1
Формат : AVC
Формат/Информация : Advanced Video Codec
Профиль формата : High@L4.1
Параметр CABAC формата : Да
Параметр ReFrames формата : 9 кадров
Идентификатор кодека : V_MPEG4/ISO/AVC
Продолжительность : 1 ч. 36 м.
Битрейт : 2005 Кбит/сек
Ширина : 1024 пикселя
Высота : 428 пикселей
Соотношение сторон : 2,40:1
Режим частоты кадров : Постоянный
Частота кадров : 23,976 кадра/сек
Цветовое пространство : YUV
Субдискретизация насыщенности : 4:2:0
Битовая глубина : 8 бит
Тип развёртки : Прогрессивная
Бит/(Пиксели*Кадры) : 0.191
Размер потока : 1,35 Гбайт (68%)
Библиотека кодирования : x264 core 146 r2538 121396c
Настройки программы : cabac=1 / ref=9 / deblock=1:-1:-1 / analyse=0x3:0x113 / me=umh / subme=10 / psy=1 / psy_rd=1.00:0.15 / mixed_ref=1 / me_range=32 / chroma_me=1 / trellis=2 / 8x8dct=1 / cqm=0 / deadzone=21,11 / fast_pskip=1 / chroma_qp_offset=-3 / threads=6 / lookahead_threads=1 / sliced_threads=0 / nr=0 / decimate=1 / interlaced=0 / bluray_compat=0 / constrained_intra=0 / bframes=9 / b_pyramid=2 / b_adapt=2 / b_bias=0 / direct=1 / weightb=1 / open_gop=0 / weightp=2 / keyint=230 / keyint_min=23 / scenecut=40 / intra_refresh=0 / rc_lookahead=40 / rc=crf / mbtree=0 / crf=18.0 / qcomp=0.60 / qpmin=0 / qpmax=69 / qpstep=4 / vbv_maxrate=40000 / vbv_bufsize=50000 / crf_max=0.0 / nal_hrd=none / filler=0 / ip_ratio=1.40 / pb_ratio=1.30 / aq=1:1.00
Язык : English
Default : Да
Forced : Нет
DURATION : 01:36:44.049000000
NUMBER_OF_FRAMES : 139158
NUMBER_OF_BYTES : 1496221980
_STATISTICS_WRITING_APP : mkvmerge v8.2.0 ('World of Adventure') 64bit
_STATISTICS_WRITING_DATE_UTC : 2015-07-26 10:05:27
_STATISTICS_TAGS : BPS DURATION NUMBER_OF_FRAMES NUMBER_OF_BYTES

Аудио #1
Идентификатор : 2
Формат : AC-3
Формат/Информация : Audio Coding 3
Расширение режима : CM (complete main)
Параметр Endianness формата : Big
Идентификатор кодека : A_AC3
Продолжительность : 1 ч. 36 м.
Вид битрейта : Постоянный
Битрейт : 448 Кбит/сек
Каналы : 2 канала
Расположение каналов : Front: L R
Частота : 48,0 КГц
Метод сжатия : С потерями
Размер потока : 310 Мбайт (15%)
Заголовок : VO (любительский одноголосый, Семён Ващенко)
Язык : Russian
Default : Да
Forced : Нет

Аудио #2
Идентификатор : 3
Формат : AC-3
Формат/Информация : Audio Coding 3
Расширение режима : CM (complete main)
Параметр Endianness формата : Big
Идентификатор кодека : A_AC3
Продолжительность : 1 ч. 36 м.
Вид битрейта : Постоянный
Битрейт : 448 Кбит/сек
Каналы : 6 каналов
Расположение каналов : Front: L C R, Side: L R, LFE
Частота : 48,0 КГц
Метод сжатия : С потерями
Размер потока : 310 Мбайт (15%)
Заголовок : Original
Язык : English
Default : Нет
Forced : Нет
pb.wtf



Скачать Солёное поле боя через торрент http://i72.fastpic.ru/big/2015/0726/00/1ee3b5f2e983e9fd3d86afeb085a2700.jpg Скачать фильм Солёное поле боя через торрент бесплантно в хорошем качестве Описание: В центре сюжета детективной драмы два спецагента Джонни Уоррикер и Марго Тирел, которые находятся в Европе в бегах. По их следу ... 10 10 2
Info! Золотая раздача, скачанное не засчитывается.
Торрент: Зарегистрирован [2015-07-26 12:26] · скачан: 73 раз
Статус: √ проверено
Размер: 2 GB
Как cкачать? Как скачать Солёное поле боя через торрент | qTorrent

% Раздел Тема Автор DL S | L
Фильмы [HD 720p, 1080p] (Звук Cam, VO, DVO) [ 9.47 GB ] Солёное поле боя / Salting the Battlefield [2014 BDRip 1080p by msltel] VO msltel Скачать
1 | 0
Фильмы [HD 720p, 1080p] (Звук Cam, VO, DVO) [ 3.32 GB ] Солёное поле боя / Salting the Battlefield [2014 BDRip 720p by msltel] VO msltel Скачать
1 | 0

28-11-2019 20:33  

Отключить всю рекламу на сайте

    Дорогой пользователь! Огромная просьба, поблагодарите релизера, оцените раздачу и оставьте свои комментарий, если Вы скачали Солёное поле боя через торрент бесплатно! Внесите свою лепту в развитие PiratBit!
    Комментировать посты могут только пользователи прошедшие не сложную регистрацию
    Показать сообщения:    

    Солёное поле боя через торрент
    Скачать бесплатно Солёное поле боя
    Солёное поле боя скачать торрент
    Солёное поле боя смотреть онлайн
    Cкачать фильм Солёное поле боя бесплатно
    Солёное поле боя скачать торрент в хорошем качестве
    Солёное поле боя смотреть онлайн бесплатно в хорошем качестве


    Вы не можете начинать темы
    Вы не можете отвечать на сообщения
    Вы не можете редактировать свои сообщения
    Вы не можете удалять свои сообщения
    Вы не можете голосовать в опросах
    Вы не можете прикреплять файлы к сообщениям
    Вы можете скачивать файлы