2 сезон

iTunes

1 сезон

1

iTunes

iTunes

iTunes

1 сезон

RePack

30

ИГРА 18+

pack

ВАЖНО

!!Акция!!

Alien_RageХит недели

RePack

MK11
pack

Забери бонус

RePack

jed

!!Акция!!

Alien_Rage

RePack

fifa19

RePack

Assassins Creed: Odyssey

RePack

NEED FOR SPEED™ PAYBACK

4 сезон

9 сезон

Бесстыжие 9 сезон

Все сериалы

все сериалы на PB.wtf

RePack

FAR CRY 5
  

Реальные кабаны / Wild Hogs (Уолт Бекер / Walt Becker) [2007, боевик, комедия, приключения, BDRip 720p от _denis_100 / NNNB] DUB, DVO, 3 x AVO pb.wtf

Реальные кабаны через торрент pb.wtf

Раздают: 1 [ 0 KB/s ]
Размер: 5.62 GB | Добавлен: 5 лет 3 мес. назад | Торрент скачан:194 раза
Скачать  

26-07-2015 15:05 Реальные кабаны Скачать торрент  

Реальные кабаны / Wild Hogs
«Четыре крутых мужика, восемь колес, одна татуировка и тысяча неприятностей»


Год выпуска: 2007
Страна: США
Жанр: боевик, комедия, приключения
Продолжительность: 01:39:38
Перевод: Дублированный, Профессиональный (двухголосый), Авторский (одноголосый)
Субтитры: русские (Forced), русские, английские
Режиссер: Уолт Бекер
В ролях: Тим Аллен , Джон Траволта , Мартин Лоуренс , Уильям Х. Мэйси , Рэй Лиотта , Мариса Томей , Кевин Дюран , Стивен Тоболовски , М. К. Гейни , Джилл Хеннесси , Доминик Джейнс , Тичина Арнольд

Описание:
Четверо благоустроенных приятелей из зажиточного пригорода решают на время отвлечься от житейских проблем и вспомнить былые раздольные деньки, когда все четверо мечтали о байкерской свободе. Еженедельные встречи за бокалом безалкогольного пива в местном мотоклубе уже поднаскучили, и друзья решают рвануть в путешествие через все Штаты, с севера на юг, до самого Нью-Мексико.
Остается только зашвырнуть подальше надоевшие мобильники, надеть косухи, повязать банданы, и назваться «Реальными кабанами» - настоящими искателями приключений. А приключений будет немало. Ночевки под открытым небом, купание в горячем источнике, разведение костра с помощью собственной палатки, близкие контакты третьей степени с провинциальным шерифом и столкновение с оравой неподдельных, бородатых и нечесаных байкеров - зловещей бандой «Дель Фуэгос» под предводительством атамана Джека.
Пройти мимо байкеров-домоседов забияки из «Дель Фуэгос» просто так не могут, потому что они - банда. Схватка в лучших традициях классических вестернов неминуема, и еще неизвестно, что окажется сильнее - обветренные кулаки байкеров-южан, или сила духа Реальных Кабанов...


PG-13 - Детям до 13 лет просмотр не желателен

Качество: BDRip 720p
Контейнер (Расширение): MKV
Видео кодек: AVC
Аудио кодек: AC3
Видео: 1280x544, 4336 Кбит/сек, 23,976 кадр/сек, 0,260 Бит/[Пиксели*Кадры]
Аудио №1: русский / AC3 / 5.1 / 48 kHz / 384 kbps / 16 bit |Дублированный, R5|
Аудио №2: русский / AC3 / 5.1 / 48 kHz / 640 kbps / 16 bit |Профессиональный двухголосый, Гланц & Королева|
Аудио №3: русский / AC3 / 5.1 / 48 kHz / 640 kbps / 16 bit |Авторский, Юрий Немахов|
Аудио №4: русский / AC3 / 5.1 / 48 kHz / 640 kbps / 16 bit |Авторский, Владимир Королев|
Аудио №5: русский / AC3 / 5.1 / 48 kHz / 640 kbps / 16 bit |Авторский, Андрей Дольский|
Аудио №6: английский / AC3 / 5.1 / 48 kHz / 640 kbps / 16 bit
Навигация по главам(Чаптеры): естьАвтор рипа: Сообщество:
  • В оригинальном сценарии фильма герои имели дело со знаменитой реально существующей группировкой байкеров Hells Angels, а также был использован её официальный логотип. После того как Hells Angels подали в суд на киностудию Disney, название группировки в фильме было изменено на вымышленное Del Fuegos.
  • Хотя по сценарию четвёрка друзей проживает в предместьях Цинциннати, штат Огайо, в реальности ни одна из сцен фильма не была снята в этом городе и его окрестностях.
  • В одной из начальных сцен, когда Дадли теряет контроль над своим мотоциклом после парковки, по находящимся в отдалении дорожным знакам легко различить, что съёмки происходят в Альбукерке, штат Нью-Мексико.
  • В фильме присутствует небольшое камео Пола Тейтула старшего и Пола Тейтула младшего, основателей компании Orange County Choppers по производству нестандартных дорожных мотоциклов, которая стала особенно известной после выхода реалити-шоу «American Chopper: The Series» (2003). Два знаменитых создателя мотоциклов появляются в любимом баре «Реальных кабанов» (его владелец и один из клиентов на заднем плане).
  • Армейский зелёный байк Джека также несёт логотип компании Orange County Choppers.
  • Когда Джек (Рэй Лиотта) завязывает стычку с «Реальными кабанами» в баре байкеров, он пьёт диетическое легкое пиво с низким процентом алкоголя, что абсолютно не увязывается с образом «крутого парня».
  • Компания Harley Davidson предоставила мотоциклы для четырех главных героев, причём каждый получил свою модель, Дадли - XL1200C Sportster Custom, Бобби - FXSTS Springer Softail, Даг - Black Fatboy с хромовым передним колесом и Вуди - Screaming Eagle Fatboy.
  • Сцена, в которой герой Питера Фонды говорит «Реальным кабанам» избавиться от своих часов, представляет собой своего рода отсылку к классической картине «Беспечный ездок» (1969), в которой также снимался актёр. В её начале персонаж Питера Фонды Уайтт выбрасывает прочь свои часы перед дорожным путешествием.
  • Код:

    Format                                   : Matroska
    Format version                           : Version 2
    File size                                : 5.62 GiB
    Duration                                 : 1h 39mn
    Overall bit rate                         : 8 082 Kbps
    Movie name                               : Real'nye kabany.(2007).BDRip.720p.[denis100]
    Encoded date                             : UTC 2015-07-26 13:57:08
    Writing application                      : mkvmerge v5.8.0 ('No Sleep / Pillow') built on Sep  2 2012 15:37:04
    Writing library                          : libebml v1.2.3 + libmatroska v1.3.0

    Video
    ID                                       : 1
    Format                                   : AVC
    Format/Info                              : Advanced Video Codec
    Format profile                           : High@L4.1
    Format settings, CABAC                   : Yes
    Format settings, ReFrames                : 11 frames
    Codec ID                                 : V_MPEG4/ISO/AVC
    Duration                                 : 1h 39mn
    Bit rate                                 : 4 337 Kbps
    Width                                    : 1 280 pixels
    Height                                   : 544 pixels
    Display aspect ratio                     : 2.35:1
    Frame rate                               : 23.976 fps
    Color space                              : YUV
    Chroma subsampling                       : 4:2:0
    Bit depth                                : 8 bits
    Scan type                                : Progressive
    Bits/(Pixel*Frame)                       : 0.260
    Stream size                              : 3.02 GiB (54%)
    Title                                    : Real'nye kabany.(2007).BDRip.720p.[denis100]
    Writing library                          : x264 core 146 r2538 121396c
    Encoding settings                        : cabac=1 / ref=11 / deblock=1:-3:-3 / analyse=0x3:0x133 / me=umh / subme=11 / psy=1 / psy_rd=1.00:0.00 / mixed_ref=1 / me_range=32 / chroma_me=1 / trellis=2 / 8x8dct=1 / cqm=0 / deadzone=21,11 / fast_pskip=0 / chroma_qp_offset=-2 / threads=6 / lookahead_threads=1 / sliced_threads=0 / nr=0 / decimate=1 / interlaced=0 / bluray_compat=0 / constrained_intra=0 / bframes=10 / b_pyramid=2 / b_adapt=2 / b_bias=0 / direct=3 / weightb=1 / open_gop=0 / weightp=2 / keyint=240 / keyint_min=23 / scenecut=40 / intra_refresh=0 / rc=crf / mbtree=0 / crf=16.6 / qcomp=0.60 / qpmin=0 / qpmax=69 / qpstep=4 / ip_ratio=1.40 / pb_ratio=1.30 / aq=1:1.00
    Language                                 : English
    Default                                  : Yes
    Forced                                   : No

    Audio #1
    ID                                       : 2
    Format                                   : AC-3
    Format/Info                              : Audio Coding 3
    Mode extension                           : CM (complete main)
    Codec ID                                 : A_AC3
    Duration                                 : 1h 39mn
    Bit rate mode                            : Constant
    Bit rate                                 : 384 Kbps
    Channel(s)                               : 6 channels
    Channel positions                        : Front: L C R, Side: L R, LFE
    Sampling rate                            : 48.0 KHz
    Bit depth                                : 16 bits
    Compression mode                         : Lossy
    Stream size                              : 274 MiB (5%)
    Title                                    : Дублированный, R5
    Language                                 : Russian
    Default                                  : Yes
    Forced                                   : No

    Audio #2
    ID                                       : 3
    Format                                   : AC-3
    Format/Info                              : Audio Coding 3
    Mode extension                           : CM (complete main)
    Codec ID                                 : A_AC3
    Duration                                 : 1h 39mn
    Bit rate mode                            : Constant
    Bit rate                                 : 640 Kbps
    Channel(s)                               : 6 channels
    Channel positions                        : Front: L C R, Side: L R, LFE
    Sampling rate                            : 48.0 KHz
    Bit depth                                : 16 bits
    Compression mode                         : Lossy
    Stream size                              : 456 MiB (8%)
    Title                                    : Гланц & Королева
    Language                                 : Russian
    Default                                  : No
    Forced                                   : No

    Audio #3
    ID                                       : 4
    Format                                   : AC-3
    Format/Info                              : Audio Coding 3
    Mode extension                           : CM (complete main)
    Codec ID                                 : A_AC3
    Duration                                 : 1h 39mn
    Bit rate mode                            : Constant
    Bit rate                                 : 640 Kbps
    Channel(s)                               : 6 channels
    Channel positions                        : Front: L C R, Side: L R, LFE
    Sampling rate                            : 48.0 KHz
    Bit depth                                : 16 bits
    Compression mode                         : Lossy
    Stream size                              : 456 MiB (8%)
    Title                                    : Авторский, Юрий Немахов
    Language                                 : Russian
    Default                                  : No
    Forced                                   : No

    Audio #4
    ID                                       : 5
    Format                                   : AC-3
    Format/Info                              : Audio Coding 3
    Mode extension                           : CM (complete main)
    Codec ID                                 : A_AC3
    Duration                                 : 1h 39mn
    Bit rate mode                            : Constant
    Bit rate                                 : 640 Kbps
    Channel(s)                               : 6 channels
    Channel positions                        : Front: L C R, Side: L R, LFE
    Sampling rate                            : 48.0 KHz
    Bit depth                                : 16 bits
    Compression mode                         : Lossy
    Stream size                              : 456 MiB (8%)
    Title                                    : Авторский, Владимир Королев
    Language                                 : Russian
    Default                                  : No
    Forced                                   : No

    Audio #5
    ID                                       : 6
    Format                                   : AC-3
    Format/Info                              : Audio Coding 3
    Mode extension                           : CM (complete main)
    Codec ID                                 : A_AC3
    Duration                                 : 1h 39mn
    Bit rate mode                            : Constant
    Bit rate                                 : 640 Kbps
    Channel(s)                               : 6 channels
    Channel positions                        : Front: L C R, Side: L R, LFE
    Sampling rate                            : 48.0 KHz
    Bit depth                                : 16 bits
    Compression mode                         : Lossy
    Stream size                              : 456 MiB (8%)
    Title                                    : Авторский, Андрей Дольский
    Language                                 : Russian
    Default                                  : No
    Forced                                   : No

    Audio #6
    ID                                       : 7
    Format                                   : AC-3
    Format/Info                              : Audio Coding 3
    Mode extension                           : CM (complete main)
    Codec ID                                 : A_AC3
    Duration                                 : 1h 39mn
    Bit rate mode                            : Constant
    Bit rate                                 : 640 Kbps
    Channel(s)                               : 6 channels
    Channel positions                        : Front: L C R, Side: L R, LFE
    Sampling rate                            : 48.0 KHz
    Bit depth                                : 16 bits
    Compression mode                         : Lossy
    Stream size                              : 456 MiB (8%)
    Language                                 : English
    Default                                  : No
    Forced                                   : No

    Text #1
    ID                                       : 8
    Format                                   : UTF-8
    Codec ID                                 : S_TEXT/UTF8
    Codec ID/Info                            : UTF-8 Plain Text
    Title                                    : Forced
    Language                                 : Russian
    Default                                  : No
    Forced                                   : No

    Text #2
    ID                                       : 9
    Format                                   : UTF-8
    Codec ID                                 : S_TEXT/UTF8
    Codec ID/Info                            : UTF-8 Plain Text
    Language                                 : Russian
    Default                                  : No
    Forced                                   : No

    Text #3
    ID                                       : 10
    Format                                   : UTF-8
    Codec ID                                 : S_TEXT/UTF8
    Codec ID/Info                            : UTF-8 Plain Text
    Language                                 : English
    Default                                  : No
    Forced                                   : No

    Menu
    00:00:00.000                             : :The Boys
    00:08:21.959                             : :Road Trip
    00:14:31.370                             : :No Rules
    00:20:28.852                             : :The Real Deal
    00:28:11.981                             : :The Day Is Today
    00:34:27.231                             : :Del Fuego's Bar
    00:40:59.081                             : :Getting Dudley's Bike Back
    00:47:19.461                             : :Madrid
    00:53:19.738                             : :Bull Slap
    01:01:23.846                             : :Bobby And The Del Fuegos
    01:11:38.919                             : :Jack Comes To Madrid
    01:16:41.096                             : :Dudley vs. Del Fuegos
    01:21:53.783                             : :Standoff At The Diner
    01:29:19.312                             : :Leaving Madrid/Trip's End
    01:34:07.725                             : :Credits

    x264 [info]: frame I:1509 Avg QP:16.54 size:130832
    x264 [info]: frame P:32886 Avg QP:17.97 size: 45381
    x264 [info]: frame B:108950 Avg QP:20.19 size: 15316
    x264 [info]: consecutive B-frames: 2.0% 2.1% 6.8% 40.5% 19.7% 24.1% 2.2% 1.6% 0.4% 0.3% 0.3%
    pb.wtf



    Скачать Реальные кабаны через торрент http://i70.fastpic.ru/big/2015/0726/b7/2158cd0064e8b365f6402c712f3b03b7.png Скачать фильм Реальные кабаны через торрент бесплантно в хорошем качестве Описание:Четверо благоустроенных приятелей из зажиточного пригорода решают на время отвлечься от житейских проблем и вспомнить былые ... 10 10 12
    Info! Золотая раздача, скачанное не засчитывается.
    Торрент: Зарегистрирован [2015-07-26 15:05] · скачан: 194 раз
    Статус: √ проверено
    Размер: 5.62 GB
    Как cкачать? Как скачать Реальные кабаны через торрент | qTorrent

    28-11-2019 20:33  

    Отключить всю рекламу на сайте

      Дорогой пользователь! Огромная просьба, поблагодарите релизера, оцените раздачу и оставьте свои комментарий, если Вы скачали Реальные кабаны через торрент бесплатно! Внесите свою лепту в развитие PiratBit!
      Комментировать посты могут только пользователи прошедшие не сложную регистрацию
      Показать сообщения:    

      Реальные кабаны через торрент
      Скачать бесплатно Реальные кабаны
      Реальные кабаны скачать торрент
      Реальные кабаны смотреть онлайн
      Cкачать фильм Реальные кабаны бесплатно
      Реальные кабаны скачать торрент в хорошем качестве
      Реальные кабаны смотреть онлайн бесплатно в хорошем качестве


      Вы не можете начинать темы
      Вы не можете отвечать на сообщения
      Вы не можете редактировать свои сообщения
      Вы не можете удалять свои сообщения
      Вы не можете голосовать в опросах
      Вы не можете прикреплять файлы к сообщениям
      Вы можете скачивать файлы