Ссылка на приватное зеркало всего за 1$. Внимание количество ограничено!!!

iTunes

1+1

iTunes

мы

WEB-DL

1

iTunes

Чернобыль

iTunes

Ральф против интернета

Лицензия

ПШазам

Лицензия

Оно 2

Лицензия

30
pack

Вам бонус

ВАЖНО

!!Акция!!

Alien_RageХит недели

RePack

Resident Evil 21

ИГРА 18+

pack

RePack

jed

!!Акция!!

Alien_Rage

RePack

fifa19

RePack

Assassins Creed: Odyssey

RePack

NEED FOR SPEED™ PAYBACK

3 сезон

9 сезон

Бесстыжие 9 сезон

Все сериалы

все сериалы на PB.wtf

RePack

FAR CRY 5
Ребята, катастрофически не хватает 1900р. для оплаты серверов за Октябрь (всвязи с блокировками трафик упал в 3 раза), 1-2р., выручайте.
  

Карандаш на льду (Владимир Немоляев) [1948, СССР, комедия, SATRip от AVP Studio] pb.wtf

Карандаш на льду через торрент pb.wtf

Размер: 372 MB | Добавлен: 4 года 4 мес. назад | Торрент скачан:7 раз
Скачать  

26-07-2015 20:25 Карандаш на льду Скачать торрент  

Карандаш на льду
Страна: СССР
Производство: Стереокино

Жанр: комедия
Год выпуска: 1948
Продолжительность: 00:22:12

Перевод: Не требуется
Cубтитры: нет
Оригинальная аудиодорожка: русский

Режиссер: Владимир Немоляев

В ролях:
Михаил Румянцев(озвучивает Эраст Гарин), Людмила Целиковская, Евгений Леонов (небольшой эпизод - дворник в начале фильма), Светлана Немоляева (видна среди зрителей в 20.07)...

Описание:
Короткометражная спортивная комедия, это один из первых наших стерео (3D) игровых фильмов. Показан матч женских команд по хоккею с мячом. Карандаш заменяет получившего травму вратаря Клаву, Людмила Целиковская играет роль Наташи - игрока одной из команд.

Источник: DVB
Качество видео: SATRip
Формат видео: AVI
Видео кодек: XviD
Аудио кодек: AC3
Видео: 704x528 (4:3), 25 fps, XviD ~ 2145 kbps avg, 0.231 bit/pixel
Аудио: 48 kHz, Dolby Digital AC3 2.0, 192 kbps

Раздача от:
Светлана Немоляева:
«Великий клоун учил меня кататься на коньках. Мой папа, известный кинорежиссер Владимир Немоляев, был ровесником Карандаша и его другом. Поэтому неудивительно, что в цирк нас с братом водили гораздо чаще, чем в театр. Причем мы не только общались с Карандашом в гримуборной, но и играли за кулисами с его собачками. Ученики и даже учителя безумно завидовали нам и готовы были вновь и вновь слушать наши рассказы.
Когда папа снимал фильм «Карандаш на льду», мы пропадали на катке целыми днями. Помню его партнершу, невероятно обаятельную и красивую Людмилу Целиковскую, снимавшуюся в кокетливой пушистой шапочке. Но в большем восторге мы были от Карандаша... Великий клоун учил нас с братом кататься на коньках, и мы носились по льду, держась за полы его пиджака. Жаль, что этот фильм крайне редко показывают по телевидению».
Общее
Полное имя : Karandash.na.ldu.1948.SATRip_[New-team]_by_AVP_Studio.avi
Формат : AVI
Формат/Информация : Audio Video Interleave
Размер файла : 372 Мбайт
Продолжительность : 22 м.
Общий поток : 2346 Кбит/сек
Программа кодирования : VirtualDubMod 1.5.10.3 | www.virtualdub-fr.org || (build 2550/release)
Библиотека кодирования : VirtualDubMod build 2550/release

Видео
Идентификатор : 0
Формат : MPEG-4 Visual
Профиль формата : Advanced Simple@L5
Параметр BVOP формата : 1
Параметр QPel формата : Нет
Параметр GMC формата : Без точки перехода
Параметр матрицы формата : Выборочная
Идентификатор кодека : XVID
Идентификатор кодека/Подсказка : XviD
Продолжительность : 22 м.
Битрейт : 2145 Кбит/сек
Ширина : 704 пикселя
Высота : 528 пикселей
Соотношение сторон : 4:3
Частота кадров : 25,000 кадров/сек
Цветовое пространство : YUV
Субдискретизация насыщенности : 4:2:0
Битовая глубина : 8 бит
Тип развёртки : Прогрессивная
Метод сжатия : С потерями
Бит/(Пиксели*Кадры) : 0.231
Размер потока : 340 Мбайт (91%)
Библиотека кодирования : XviD 73

Аудио
Идентификатор : 1
Формат : AC-3
Формат/Информация : Audio Coding 3
Расширение режима : CM (complete main)
Параметр Endianness формата : Big
Идентификатор кодека : 2000
Продолжительность : 22 м.
Вид битрейта : Постоянный
Битрейт : 192 Кбит/сек
Каналы : 2 канала
Расположение каналов : Front: L R
Частота : 48,0 КГц
Метод сжатия : С потерями
Размер потока : 30,5 Мбайт (8%)
Выравнивание : Разделение по промежуткам
Продолжительность промежутка : 40 мс. (1,00 видеокадр)
Время предзагрузки промежутка : 500 мс
pb.wtf



Скачать Карандаш на льду через торрент http://s016.radikal.ru/i337/1507/6d/4bff008b16e2.png Скачать фильм Карандаш на льду через торрент бесплантно в хорошем качестве Описание:Короткометражная спортивная комедия, это один из первых наших стерео (3D) игровых фильмов. Показан матч женских команд по хоккею с ... 10 10 1
Info! Золотая раздача, скачанное не засчитывается.
Торрент: Зарегистрирован [2015-07-26 20:25] · скачан: 7 раз
Статус: √ проверено
Размер: 372 MB
Как cкачать? Как скачать Карандаш на льду через торрент | qTorrent

% Раздел Тема Автор DL S | L
Кино СССР [ 372 MB ] Карандаш на льду [1948 СССР SATRip-AVC от AVP Studio] AVP Studio Скачать
1 | 0

28-11-2019 20:33  

Отключить всю рекламу на сайте

    Дорогой пользователь! Огромная просьба, поблагодарите релизера, оцените раздачу и оставьте свои комментарий, если Вы скачали Карандаш на льду через торрент бесплатно! Внесите свою лепту в развитие PiratBit!
    Комментировать посты могут только пользователи прошедшие не сложную регистрацию
    Показать сообщения:    

    Карандаш на льду через торрент
    Скачать бесплатно Карандаш на льду
    Карандаш на льду скачать торрент
    Карандаш на льду смотреть онлайн
    Cкачать фильм Карандаш на льду бесплатно
    Карандаш на льду скачать торрент в хорошем качестве
    Карандаш на льду смотреть онлайн бесплатно в хорошем качестве


    Вы не можете начинать темы
    Вы не можете отвечать на сообщения
    Вы не можете редактировать свои сообщения
    Вы не можете удалять свои сообщения
    Вы не можете голосовать в опросах
    Вы не можете прикреплять файлы к сообщениям
    Вы можете скачивать файлы