новый адрес
Мега распродажа FORZA HORIZON 4 ULTIMATE+ВСЕ DLC+ОНЛАЙН всего за 499р. 349 руб. (супер цена). Внимание количество ограничено!!!

iTunes

1+1

iTunes

мы

iTunes

1

iTunes

Чернобыль

iTunes

Ральф против интернета

Лицензия

ПШазам

Лицензия

Игра престолов

Лицензия

30
pack

ВАЖНО

!!Акция!!

Alien_RageХит недели

RePack

Resident Evil 21

ИГРА 18+

pack

RePack

Metro:Exodus

!!Акция!!

Alien_Rage

RePack

fifa19

RePack

Assassins Creed: Odyssey

RePack

NEED FOR SPEED™ PAYBACK

3 сезон

9 сезон

Бесстыжие 9 сезон

Все сериалы

все сериалы на PB.wtf

RePack

FAR CRY 5
Ребята, катастрофически не хватает 1900р. для оплаты серверов за Октябрь (всвязи с блокировками трафик упал в 3 раза), 1-2р., выручайте.
  

Карандаш на льду (Владимир Немоляев) [1948, СССР, комедия, SATRip-AVC от AVP Studio] pb.wtf

Карандаш на льду через торрент pb.wtf

Размер: 372 MB | Добавлен: 4 года 3 мес. назад | Торрент скачан:21 раз
Скачать  

26-07-2015 20:28 Карандаш на льду Скачать торрент  

Карандаш на льду
Страна: СССР
Производство: Стереокино

Жанр: комедия
Год выпуска: 1948
Продолжительность: 00:22:12

Перевод: Не требуется
Cубтитры: нет
Оригинальная аудиодорожка: русский

Режиссер: Владимир Немоляев

В ролях:
Михаил Румянцев(озвучивает Эраст Гарин), Людмила Целиковская, Евгений Леонов (небольшой эпизод - дворник в начале фильма), Светлана Немоляева (видна среди зрителей в 20.07)...

Описание:
Короткометражная спортивная комедия, это один из первых наших стерео (3D) игровых фильмов. Показан матч женских команд по хоккею с мячом. Карандаш заменяет получившего травму вратаря Клаву, Людмила Целиковская играет роль Наташи - игрока одной из команд.

Источник: DVB
Качество видео: SATRip-AVC
Формат видео: MKV
Видео кодек: H.264
Аудио кодек: AC3
Видео: 712->762x572 (4:3), 25 fps, H264 ~ 2151 kbps avg, 0.211 bit/pixel
Аудио: 48 kHz, Dolby Digital AC3 2.0, 192 kbps

Раздача от:
Светлана Немоляева:
«Великий клоун учил меня кататься на коньках. Мой папа, известный кинорежиссер Владимир Немоляев, был ровесником Карандаша и его другом. Поэтому неудивительно, что в цирк нас с братом водили гораздо чаще, чем в театр. Причем мы не только общались с Карандашом в гримуборной, но и играли за кулисами с его собачками. Ученики и даже учителя безумно завидовали нам и готовы были вновь и вновь слушать наши рассказы.
Когда папа снимал фильм «Карандаш на льду», мы пропадали на катке целыми днями. Помню его партнершу, невероятно обаятельную и красивую Людмилу Целиковскую, снимавшуюся в кокетливой пушистой шапочке. Но в большем восторге мы были от Карандаша... Великий клоун учил нас с братом кататься на коньках, и мы носились по льду, держась за полы его пиджака. Жаль, что этот фильм крайне редко показывают по телевидению».
Общее
Полное имя : Karandash.na.ldu.1948.SATRip-AVC_[New-team]_by_AVP_Studio.mkv
Формат : Matroska
Версия формата : Version 2
Размер файла : 372 Мбайт
Продолжительность : 22 м.
Общий поток : 2344 Кбит/сек
Дата кодирования : UTC 2015-07-24 16:18:45
Программа кодирования : mkvmerge v6.1.0 ('Old Devil') built on Mar 4 2013 09:10:42
Библиотека кодирования : libebml v1.3.0 + libmatroska v1.4.0

Видео
Идентификатор : 1
Формат : AVC
Формат/Информация : Advanced Video Codec
Профиль формата : High@L4.1
Параметр CABAC формата : Да
Параметр ReFrames формата : 8 кадров
Идентификатор кодека : V_MPEG4/ISO/AVC
Продолжительность : 22 м.
Битрейт : 2151 Кбит/сек
Ширина : 712 пикселей
Высота : 572 пикселя
Соотношение сторон : 4:3
Режим частоты кадров : Постоянный
Частота кадров : 25,000 кадров/сек
Цветовое пространство : YUV
Субдискретизация насыщенности : 4:2:0
Битовая глубина : 8 бит
Тип развёртки : Прогрессивная
Бит/(Пиксели*Кадры) : 0.211
Размер потока : 334 Мбайт (90%)
Библиотека кодирования : x264 core 130 r2273 b3065e6
Настройки программы : cabac=1 / ref=8 / deblock=1:-2:-1 / analyse=0x3:0x113 / me=umh / subme=10 / psy=1 / psy_rd=1.00:0.05 / mixed_ref=1 / me_range=32 / chroma_me=1 / trellis=2 / 8x8dct=1 / cqm=0 / deadzone=21,11 / fast_pskip=0 / chroma_qp_offset=-3 / threads=6 / lookahead_threads=1 / sliced_threads=0 / nr=0 / decimate=0 / interlaced=0 / bluray_compat=0 / constrained_intra=0 / bframes=8 / b_pyramid=2 / b_adapt=2 / b_bias=0 / direct=3 / weightb=1 / open_gop=0 / weightp=2 / keyint=250 / keyint_min=25 / scenecut=40 / intra_refresh=0 / rc=2pass / mbtree=0 / bitrate=2151 / ratetol=1.0 / qcomp=0.60 / qpmin=0 / qpmax=69 / qpstep=4 / cplxblur=20.0 / qblur=0.5 / ip_ratio=1.40 / pb_ratio=1.30 / aq=1:1.00
Default : Да
Forced : Нет

Аудио
Идентификатор : 2
Формат : AC-3
Формат/Информация : Audio Coding 3
Расширение режима : CM (complete main)
Параметр Endianness формата : Big
Идентификатор кодека : A_AC3
Продолжительность : 22 м.
Вид битрейта : Постоянный
Битрейт : 192 Кбит/сек
Каналы : 2 канала
Расположение каналов : Front: L R
Частота : 44,1 КГц
Метод сжатия : С потерями
Размер потока : 30,5 Мбайт (8%)
Default : Да
Forced : Нет
pb.wtf



Скачать Карандаш на льду через торрент http://s016.radikal.ru/i337/1507/6d/4bff008b16e2.png Скачать фильм Карандаш на льду через торрент бесплантно в хорошем качестве Описание:Короткометражная спортивная комедия, это один из первых наших стерео (3D) игровых фильмов. Показан матч женских команд по хоккею с ... 10 10 1
Info! Золотая раздача, скачанное не засчитывается.
Торрент: Зарегистрирован [2015-07-26 20:28] · скачан: 21 раз
Статус: √ проверено
Размер: 372 MB
Как cкачать? Как скачать Карандаш на льду через торрент | qTorrent

% Раздел Тема Автор DL S | L
Кино СССР [ 372 MB ] Карандаш на льду [1948 СССР SATRip от AVP Studio] AVP Studio Скачать
1 | 0


>> Регистрируемся здесь <<






Отзывы и комментарии о схеме читаем и пишем здесь: ---> Отзывы и комментарии о схеме

Новые благодарочки в телеграм довольных пользователей:
скриншот   скриншот   скриншот   скриншот   скриншот
    Дорогой пользователь! Огромная просьба, поблагодарите релизера, оцените раздачу и оставьте свои комментарий, если Вы скачали Карандаш на льду через торрент бесплатно! Внесите свою лепту в развитие PiratBit!
    Комментировать посты могут только пользователи прошедшие не сложную регистрацию
    Показать сообщения:    

    Карандаш на льду через торрент
    Скачать бесплатно Карандаш на льду
    Карандаш на льду скачать торрент
    Карандаш на льду смотреть онлайн
    Cкачать фильм Карандаш на льду бесплатно
    Карандаш на льду скачать торрент в хорошем качестве
    Карандаш на льду смотреть онлайн бесплатно в хорошем качестве


    Вы не можете начинать темы
    Вы не можете отвечать на сообщения
    Вы не можете редактировать свои сообщения
    Вы не можете удалять свои сообщения
    Вы не можете голосовать в опросах
    Вы не можете прикреплять файлы к сообщениям
    Вы можете скачивать файлы