новый адрес
Ссылка на приватное зеркало всего за 1$. Внимание количество ограничено!!!

iTunes

1+1

iTunes

мы

iTunes

1

iTunes

Чернобыль

iTunes

Ральф против интернета

Лицензия

ПШазам

Лицензия

Оно 2

Лицензия

30
pack

Вам бонус

ВАЖНО

!!Акция!!

Alien_RageХит недели

RePack

Resident Evil 21

ИГРА 18+

pack

RePack

jed

!!Акция!!

Alien_Rage

RePack

fifa19

RePack

Assassins Creed: Odyssey

RePack

NEED FOR SPEED™ PAYBACK

3 сезон

9 сезон

Бесстыжие 9 сезон

Все сериалы

все сериалы на PB.wtf

RePack

FAR CRY 5
Ребята, катастрофически не хватает 1900р. для оплаты серверов за Октябрь (всвязи с блокировками трафик упал в 3 раза), 1-2р., выручайте.
  

Солистка балета (Александр Ивановский) [1947, СССР, комедия, мелодрама, музыкальный, DVDRip от AVP Studio] pb.wtf

Солистка балета через торрент pb.wtf

Размер: 1.09 GB | Добавлен: 4 года 3 мес. назад | Торрент скачан:8 раз
Скачать  

26-07-2015 20:38 Солистка балета Скачать торрент  

Солистка балета
Страна: СССР
Производство: Ленфильм

Жанр: комедия, мелодрама, музыкальный
Год выпуска: 1947
Продолжительность: 01:13:11

Перевод: Не требуется
Cубтитры: нет
Оригинальная аудиодорожка: русский

Режиссер: Александр Ивановский

В ролях:
Мира Редина, Виктор Казанович, Ольга Жизнева, Владимир Гардин, Галина Уланова, Владимир Преображенский, Нонна Ястребова, Нина Болдырева, Константин Адашевский, Александр Орлов, Фёдор Курихин...

Описание:
Наташа Субботина, заканчивая хореографическое училище, готовит партию Авроры в балете П. Чайковского "Спящая красавица". Юная балерина не хочет повторять найденный когда-то Мариусом Петипа рисунок танца и стремится внести в него свежие краски. Нелегко найдёт она новое решение. Не сразу сложатся у Наташи и отношения с влюблённым в неё студентом Консерватории Алексеем. В фильме использованы фрагменты из балета П. Чайковского "Лебединое озеро" с участием Галины Улановой.

Источник: DVD5 R5
Качество видео: DVDRip
Формат видео: AVI
Видео кодек: XviD
Аудио кодек: AC3
Видео: 672x496 (4:3), 25 fps, XviD ~ 1931 kbps avg, 0.232 bit/pixel
Аудио: 48 kHz, Dolby Digital AC3 2.0, 192 kbps

Раздача от:
Общее
Полное имя : Solistka.baleta.1947.DVDRip_[New-team]_by_AVP_Studio.avi
Формат : AVI
Формат/Информация : Audio Video Interleave
Размер файла : 1,09 Гбайт
Продолжительность : 1 ч. 13 м.
Общий поток : 2132 Кбит/сек
Программа кодирования : VirtualDubModRus 1.5.10.2 (build 2542/release)
Библиотека кодирования : VirtualDubMod build 2542/release

Видео
Идентификатор : 0
Формат : MPEG-4 Visual
Профиль формата : Advanced Simple@L5
Параметр BVOP формата : 1
Параметр QPel формата : Нет
Параметр GMC формата : Без точки перехода
Параметр матрицы формата : Выборочная
Идентификатор кодека : XVID
Идентификатор кодека/Подсказка : XviD
Продолжительность : 1 ч. 13 м.
Битрейт : 1931 Кбит/сек
Ширина : 672 пикселя
Высота : 496 пикселей
Соотношение сторон : 4:3
Частота кадров : 25,000 кадров/сек
Цветовое пространство : YUV
Субдискретизация насыщенности : 4:2:0
Битовая глубина : 8 бит
Тип развёртки : Прогрессивная
Метод сжатия : С потерями
Бит/(Пиксели*Кадры) : 0.232
Размер потока : 1011 Мбайт (91%)
Библиотека кодирования : XviD 73

Аудио
Идентификатор : 1
Формат : AC-3
Формат/Информация : Audio Coding 3
Расширение режима : CM (complete main)
Параметр Endianness формата : Big
Идентификатор кодека : 2000
Продолжительность : 1 ч. 13 м.
Вид битрейта : Постоянный
Битрейт : 192 Кбит/сек
Каналы : 2 канала
Расположение каналов : Front: L R
Частота : 48,0 КГц
Метод сжатия : С потерями
Размер потока : 101 Мбайт (9%)
Выравнивание : Разделение по промежуткам
Продолжительность промежутка : 40 мс. (1,00 видеокадр)
Время предзагрузки промежутка : 500 мс
pb.wtf



Скачать Солистка балета через торрент http://s013.radikal.ru/i322/1507/cd/066094b8504f.png Скачать фильм Солистка балета через торрент бесплантно в хорошем качестве Описание:Наташа Субботина, заканчивая хореографическое училище, готовит партию Авроры в балете П. Чайковского "Спящая красавица". Юная ... 10 10 2
Info! Золотая раздача, скачанное не засчитывается.
Торрент: Зарегистрирован [2015-07-26 20:38] · скачан: 8 раз
Статус: √ проверено
Размер: 1.09 GB
Как cкачать? Как скачать Солистка балета через торрент | qTorrent

% Раздел Тема Автор DL S | L
Кино СССР [ 1.09 GB ] Солистка балета [1947 СССР музыкальный DVDRip-AVC от AVP Studio] AVP Studio Скачать
1 | 0
Кино СССР [ 750 MB ] Солистка балета [1947 СССР музыкальный DVDRip от AVP Studio] AVP Studio Скачать
1 | 0


>> Регистрируемся здесь <<






Отзывы и комментарии о схеме читаем и пишем здесь: ---> Отзывы и комментарии о схеме

Новые благодарочки в телеграм довольных пользователей:
скриншот   скриншот   скриншот   скриншот   скриншот
    Дорогой пользователь! Огромная просьба, поблагодарите релизера, оцените раздачу и оставьте свои комментарий, если Вы скачали Солистка балета через торрент бесплатно! Внесите свою лепту в развитие PiratBit!
    Комментировать посты могут только пользователи прошедшие не сложную регистрацию
    Показать сообщения:    

    Солистка балета через торрент
    Скачать бесплатно Солистка балета
    Солистка балета скачать торрент
    Солистка балета смотреть онлайн
    Cкачать фильм Солистка балета бесплатно
    Солистка балета скачать торрент в хорошем качестве
    Солистка балета смотреть онлайн бесплатно в хорошем качестве


    Вы не можете начинать темы
    Вы не можете отвечать на сообщения
    Вы не можете редактировать свои сообщения
    Вы не можете удалять свои сообщения
    Вы не можете голосовать в опросах
    Вы не можете прикреплять файлы к сообщениям
    Вы можете скачивать файлы