Ссылка на приватное зеркало нашего сайта всего за 1$. Внимание количество ограничено!!!

2 сезон

iTunes

1 сезон

1

2 сезон

2 сезон

iTunes

1 сезон

RePack

30

Ultimate

ВАЖНО

ИГРА 18+

pack

RePack

MK11
pack

Забери бонус

RePack

jed

!!Акция!!

Alien_Rage

RePack

fifa19

RePack

Assassins Creed: Odyssey

RePack

NEED FOR SPEED™ PAYBACK

4 сезон

9 сезон

Бесстыжие 9 сезон

Все сериалы

все сериалы на PB.wtf

RePack

FAR CRY 5
  

Теркс и Кайкос / Turks & Caicos (Дэвид Хэа) [2014, боевик, триллер, драма, детектив, BDRip 1080p by msltel] VO pb.wtf

Теркс и Кайкос через торрент pb.wtf

Размер: 8.33 GB | Добавлен: 5 лет 4 мес. назад | Торрент скачан:18 раз
Скачать  

27-07-2015 06:49 Теркс и Кайкос Скачать торрент  

Название: Теркс и Кайкос
Оригинальное название: Turks & Caicos
Год выпуска: 2014
Страна: Великобритания
Жанр: боевик, триллер, драма, детектив
Продолжительность: 01:39:22
Перевод: любительский одноголосый

Режиссёр: Дэвид Хэа

В ролях: Билл Найи, Вайнона Райдер, Кристофер Уокен, Гензель Пайпер, Дилан Бэйкер, Джеймс Нафтон, Зак Гренье, Джули Хьюлетт, Хелена Бонем Картер, Руперт Грейвз, Сэлли Гринвуд, Юэн Бремнер, Мэлик Йоба, Кобна Холдбрук-Смит, Мередит Итон, Рэйф Файнс, Ник Дональд

Описание: После событий в первом фильме «Страница 8» офицер британской контрразведки Джонни Уоррикер залёг на дно, обитая на островах Теркс и Кайкос в Карибском море. Однажды с ним на связь выходит агент ЦРУ, из-за которого Уоррикер окажется в компании сомнительных американских бизнесменов. На утро одного из них найдут мёртвым, а в деле снова окажется замешан британский премьер-минист Алек Бизли...



Качество: BDRip 1080p Сравнение с исходником
Формат: MKV
Видео кодек: H.264
Аудио кодек: AC3, DTS
Видео: MPEG-4 AVC, 9807 Кбит/с, 1920x804, 23,976 кадра/с
Аудио 1: русский, AC3, 448 kbps, 2 ch, 48 kHz [любительский одноголосый, Семён Ващенко]
Аудио 2: английский, DTS, 1509 kbps, 6 ch, 48 kHz [оригинал]
Общее
Уникальный идентификатор : 171655132042259130545992443295357967885 (0x8123936D943AC18A92894A549BAB9E0D)
Полное имя : D:VideoТеркс и Кайкос.2014.BDRip.1080p.mkv
Формат : Matroska
Версия формата : Version 4 / Version 2
Размер файла : 8,33 Гбайт
Продолжительность : 1 ч. 39 м.
Общий поток : 12,0 Мбит/сек
Название фильма : BDRip -- STarankov
Дата кодирования : UTC 2015-07-27 02:13:48
Программа кодирования : mkvmerge v8.2.0 ('World of Adventure') 64bit
Библиотека кодирования : libebml v1.3.1 + libmatroska v1.4.2
DURATION : 01:39:20.374000000
NUMBER_OF_FRAMES : 558785
NUMBER_OF_BYTES : 1124275488
_STATISTICS_WRITING_APP : mkvmerge v8.2.0 ('World of Adventure') 64bit
_STATISTICS_WRITING_DATE_UTC : 2015-07-27 02:13:48
_STATISTICS_TAGS : BPS DURATION NUMBER_OF_FRAMES NUMBER_OF_BYTES

Видео
Идентификатор : 1
Формат : AVC
Формат/Информация : Advanced Video Codec
Профиль формата : High@L4.1
Параметр CABAC формата : Да
Параметр ReFrames формата : 4 кадра
Идентификатор кодека : V_MPEG4/ISO/AVC
Продолжительность : 1 ч. 39 м.
Битрейт : 9807 Кбит/сек
Ширина : 1920 пикселей
Высота : 804 пикселя
Соотношение сторон : 2,40:1
Режим частоты кадров : Постоянный
Частота кадров : 23,976 кадра/сек
Цветовое пространство : YUV
Субдискретизация насыщенности : 4:2:0
Битовая глубина : 8 бит
Тип развёртки : Прогрессивная
Бит/(Пиксели*Кадры) : 0.265
Размер потока : 6,81 Гбайт (82%)
Библиотека кодирования : x264 core 146 r2538 121396c
Настройки программы : cabac=1 / ref=4 / deblock=1:-1:-1 / analyse=0x3:0x113 / me=umh / subme=10 / psy=1 / psy_rd=1.00:0.15 / mixed_ref=1 / me_range=32 / chroma_me=1 / trellis=2 / 8x8dct=1 / cqm=0 / deadzone=21,11 / fast_pskip=1 / chroma_qp_offset=-3 / threads=6 / lookahead_threads=1 / sliced_threads=0 / nr=0 / decimate=1 / interlaced=0 / bluray_compat=0 / constrained_intra=0 / bframes=8 / b_pyramid=2 / b_adapt=2 / b_bias=0 / direct=1 / weightb=1 / open_gop=0 / weightp=2 / keyint=230 / keyint_min=23 / scenecut=40 / intra_refresh=0 / rc_lookahead=40 / rc=crf / mbtree=0 / crf=18.7 / qcomp=0.60 / qpmin=0 / qpmax=69 / qpstep=4 / vbv_maxrate=40000 / vbv_bufsize=50000 / crf_max=0.0 / nal_hrd=none / filler=0 / ip_ratio=1.40 / pb_ratio=1.30 / aq=1:1.00
Язык : English
Default : Да
Forced : Нет
DURATION : 01:39:22.373000000
NUMBER_OF_FRAMES : 142954
NUMBER_OF_BYTES : 7485520977
_STATISTICS_WRITING_APP : mkvmerge v8.2.0 ('World of Adventure') 64bit
_STATISTICS_WRITING_DATE_UTC : 2015-07-27 02:13:48
_STATISTICS_TAGS : BPS DURATION NUMBER_OF_FRAMES NUMBER_OF_BYTES

Аудио #1
Идентификатор : 2
Формат : AC-3
Формат/Информация : Audio Coding 3
Расширение режима : CM (complete main)
Параметр Endianness формата : Big
Идентификатор кодека : A_AC3
Продолжительность : 1 ч. 39 м.
Вид битрейта : Постоянный
Битрейт : 448 Кбит/сек
Каналы : 2 канала
Расположение каналов : Front: L R
Частота : 48,0 КГц
Метод сжатия : С потерями
Размер потока : 318 Мбайт (4%)
Заголовок : VO (любительский одноголосый, Семён Ващенко)
Язык : Russian
Default : Да
Forced : Нет

Аудио #2
Идентификатор : 3
Формат : DTS
Формат/Информация : Digital Theater Systems
Режим : 16
Параметр Endianness формата : Big
Идентификатор кодека : A_DTS
Продолжительность : 1 ч. 39 м.
Вид битрейта : Постоянный
Битрейт : 1509 Кбит/сек
Каналы : 6 каналов
Расположение каналов : Front: L C R, Side: L R, LFE
Частота : 48,0 КГц
Битовая глубина : 16 бит
Метод сжатия : С потерями
Размер потока : 1,05 Гбайт (13%)
Заголовок : Original
Язык : English
Default : Нет
Forced : Нет
pb.wtf



Скачать Теркс и Кайкос через торрент http://i72.fastpic.ru/big/2015/0726/b0/bec75e3db116f238a77e10b6868ddfb0.jpg Скачать фильм Теркс и Кайкос через торрент бесплантно в хорошем качестве Описание: После событий в первом фильме «Страница 8» офицер британской контрразведки Джонни Уоррикер залёг на дно, обитая на островах Теркс ... 5 10 1
Info! Золотая раздача, скачанное не засчитывается.
Торрент: Зарегистрирован [2015-07-27 06:49] · скачан: 18 раз
Статус: T временная
Размер: 8.33 GB
Как cкачать? Как скачать Теркс и Кайкос через торрент | qTorrent

28-11-2019 20:33  

Отключить всю рекламу на сайте

    Дорогой пользователь! Огромная просьба, поблагодарите релизера, оцените раздачу и оставьте свои комментарий, если Вы скачали Теркс и Кайкос через торрент бесплатно! Внесите свою лепту в развитие PiratBit!
    Комментировать посты могут только пользователи прошедшие не сложную регистрацию
    Показать сообщения:    

    Теркс и Кайкос через торрент
    Скачать бесплатно Теркс и Кайкос
    Теркс и Кайкос скачать торрент
    Теркс и Кайкос смотреть онлайн
    Cкачать фильм Теркс и Кайкос бесплатно
    Теркс и Кайкос скачать торрент в хорошем качестве
    Теркс и Кайкос смотреть онлайн бесплатно в хорошем качестве


    Вы не можете начинать темы
    Вы не можете отвечать на сообщения
    Вы не можете редактировать свои сообщения
    Вы не можете удалять свои сообщения
    Вы не можете голосовать в опросах
    Вы не можете прикреплять файлы к сообщениям
    Вы можете скачивать файлы