2 сезон

iTunes

MVO

1

2 сезон

iTunes

iTunes

1 сезон

RePack

30

Ultimate

ВАЖНО

ИГРА 18+

pack

RePack

MK11
pack

Легкие деньги

RePack

jed

RePack

fifa19

RePack

RDR2

RePack

NEED FOR SPEED™ PAYBACK

4 сезон

9 сезон

Бесстыжие 9 сезон

Все сериалы

все сериалы на PB.wtf

RePack

FAR CRY 5

Anonymous, добрый вечер, мы не успеваем собрать деньги на оплату серверов за декабрь и январь, помогите нам пожалуйста в это трудное время. В качестве благодарности мы отключим Вам всю рекламу на сайте (укажите свой ник в строку Ваше имя)!

×
  
Magnet ссылка

BBC: Планета Земля / BBC: Planet Earth (Аластер Фовергилл / Alastair Fothergill) [2006, документальный, BDRip 720p от _denis_100 / NNNB] Профессиональный (одноголосый) pb.wtf

BBC: Планета Земля через торрент pb.wtf

Размер: 25.78 GB | Добавлен: 5 лет 5 мес. назад | Торрент скачан:205 раз
Скачать  

27-07-2015 11:28 BBC: Планета Земля Скачать торрент  

BBC: Планета Земля / Planet Earth



Год выпуска: 2006
Страна: Великобритания
Жанр: документальный
Продолжительность: 11 х ~ 00:51:00
Перевод: Профессиональный (одноголосый) - Текст читает - Академик Российской академии естественных наук (РАЕН) Николай Дроздов
Субтитры: русские
Режиссер: Аластер Фовергилл
В ролях: Дэвид Аттенборо , Сигурни Уивер , Хув Корди , Даг Аллен , Марк Линфилд , Дуг Андерсон , Том Кларк , Дэни Клейе-Маррель , Джастин Эванс , Майк Холдинг , Чадден Хантер , Чои Джен
Описание:
Создатели сериала «Голубая планета» сняли новый фильм, показывающий Землю такой, какой ее еще никто не видел прежде. Невероятные по красоте пейзажи и самые заповедные и малоизученные уголки нашей планеты. Четыре года напряженной работы и беспрецедентный для документального фильма бюджет позволили создать уникальный по масштабности фильм. А революционные режимы сверхскоростной съемки и детализации картинки, сделали возможным показать великолепие нашей природы во всех подробностях.


Качество: BDRip 720p
Контейнер (Расширение): MKV
Видео кодек: AVC
Аудио кодек: AC3
Видео: 1280x720, ~5900 Кбит/сек, 23,976 кадр/сек, 0,268 Бит/[Пиксели*Кадры]
Аудио №1: русский / AC3 / 2.0 / 48 kHz / 192 kbps / 16 bit |Профессиональный (одноголосый), Николай Дроздов|
Аудио №2: английский / AC3 / 5.1 / 48 kHz / 448 kbps / 16 bitАвтор рипа: Сообщество:
01. От полюса до полюса / From Pole to Pole
Сто лет назад население Земли составляло 1,5 миллиарда человек, а сегодня на хрупкой планете нас больше 6 миллиардов. И, тем не менее, на Земле еще остались места, где еще не ступала нога человека. В этой серии вы увидите последние нетронутые уголки дикой природы, какими вы их еще никогда не видели.
02. Горы / Mountains
На свой страх и риск люди поднимаются на самые высокие вершины планеты. Некоторые считают, что, взбираясь на большую гору, они покоряют ее. Но на самом деле мы здесь только гости. Это холодный, чуждый нам мир неземной красоты...
03. Пресная вода / Fresh Water
Пресная вода составляет всего 3% от общих запасов воды на нашей планете, но бесценные источники пресной воды преподносят много сюрпризов. Вся жизнь на Земле в конечном счете зависит от пресной воды.
04. Пещеры / Caves
Это один из самых неизведанных рубежей нашей планеты. Таинственный мир заглянуть в который отваживаются только самые отважные смельчаки. Мир в котором под нашими ногами на многие километры тянутся лабиринты пещер и тоннелей.
05. Пустыни / Deserts
Пустыни занимают треть поверхности суши Земли. Огромные рубцы на лице планеты кажутся безжизненными. Но, как ни странно, это не так. Во всех пустынях всегда была и продолжается жизнь.
06. Ледяные миры / Ice Worlds
Оба полюса нашей планеты покрыты льдом. Это самые обширные и самые суровые пустыни в мире. Больше нигде в мире смена времен года не происходит так резко как здесь. Каждый год льды наступают и отступают. Вся жизнь на полюсах зависит от этого.
07. Великие равнины / Great Plains
Обширные безлесные равнины, бескрайние просторы, тишина: Но ощущение пустоты это иллюзия. Равнины нашей планеты дают пищу самым многочисленным скоплениям животных на Земле.
08. Джунгли / Jungles
Это оранжерея нашей планеты. Влажные тропические леса занимают лишь 3% поверхности суши, однако в них обитает больше половины биологических видов планеты. Каким же образом здесь уживается такое невиданное множество разнообразных растений и животных?
09. Мелководные моря / Shallow Seas
Континенты нашей планеты окружены мелководными морями. Их глубина редко превышает более 200 метров, ведь они расположены на континентальных шельфах, а шельфы иногда простираются на сотни километров до своего обрыва в темные глубины. Мелководные моря составляют лишь 8% поверхности мирового океана, но в них обитает подавляющее большинство морских животных.
10. Сезонные леса / Seasonal Forests
Деревья, бесспорно, самые величественные из всех живых существ. Некоторые из них являются самыми крупными живыми организмами на Земле и это самые высокие деревья в мире. Лиственные и хвойные деревья, растущие в сезонных областях нашей планеты, образуют самые обширные леса на Земле. Их размеры поражают воображение.
11. Глубины океанов / Ocean Deep
Мир за пределами суши. Океан. Он покрывает 2/3 земной поверхности, при этом большая его часть для нас недосягаема. Жизнь обитателей океанских глубин проходит в постоянных поисках пищи и в борьбе за выживание.

Код:

Format : Matroska
Format version : Version 2
File size : 2.34 GiB
Duration : 51mn 16s
Overall bit rate : 6 542 Kbps
Movie name : BBC: Planet Earth.01.Ot poljusa do poljusa.(2006).BDRip.720p.[denis100]
Encoded date : UTC 2015-07-25 09:47:26
Writing application : mkvmerge v5.8.0 ('No Sleep / Pillow') built on Sep 2 2012 15:37:04
Writing library : libebml v1.2.3 + libmatroska v1.3.0

Video
ID : 1
Format : AVC
Format/Info : Advanced Video Codec
Format profile : High@L4.1
Format settings, CABAC : Yes
Format settings, ReFrames : 9 frames
Codec ID : V_MPEG4/ISO/AVC
Duration : 51mn 16s
Bit rate : 5 917 Kbps
Width : 1 280 pixels
Height : 720 pixels
Display aspect ratio : 16:9
Frame rate mode : Constant
Frame rate : 23.976 fps
Color space : YUV
Chroma subsampling : 4:2:0
Bit depth : 8 bits
Scan type : Progressive
Bits/(Pixel*Frame) : 0.268
Stream size : 2.07 GiB (88%)
Title : BBC: Planet Earth.01.Ot poljusa do poljusa.(2006).BDRip.720p.[denis100]
Writing library : x264 core 129 r2230 1cffe9f
Encoding settings : cabac=1 / ref=9 / deblock=1:0:0 / analyse=0x3:0x113 / me=umh / subme=10 / psy=1 / psy_rd=1.00:0.10 / mixed_ref=1 / me_range=32 / chroma_me=1 / trellis=2 / 8x8dct=1 / cqm=0 / deadzone=21,11 / fast_pskip=0 / chroma_qp_offset=-3 / threads=6 / lookahead_threads=1 / sliced_threads=0 / nr=0 / decimate=0 / interlaced=0 / bluray_compat=0 / constrained_intra=0 / bframes=5 / b_pyramid=2 / b_adapt=2 / b_bias=0 / direct=3 / weightb=1 / open_gop=0 / weightp=2 / keyint=240 / keyint_min=24 / scenecut=40 / intra_refresh=0 / rc_lookahead=60 / rc=2pass / mbtree=1 / bitrate=5917 / ratetol=1.0 / qcomp=0.60 / qpmin=0 / qpmax=51 / qpstep=4 / cplxblur=20.0 / qblur=0.5 / ip_ratio=1.40 / aq=1:1.00
Language : English
Default : Yes
Forced : No

Audio #1
ID : 2
Format : AC-3
Format/Info : Audio Coding 3
Format profile : Dolby Digital
Mode extension : CM (complete main)
Format settings, Endianness : Big
Codec ID : A_AC3
Duration : 51mn 16s
Bit rate mode : Constant
Bit rate : 192 Kbps
Channel(s) : 2 channels
Channel positions : Front: L R
Sampling rate : 48.0 KHz
Bit depth : 16 bits
Compression mode : Lossy
Stream size : 70.4 MiB (3%)
Title : Профессиональный (одноголосный) - Николай Дроздов
Language : Russian
Default : Yes
Forced : No

Audio #2
ID : 3
Format : AC-3
Format/Info : Audio Coding 3
Mode extension : CM (complete main)
Format settings, Endianness : Big
Codec ID : A_AC3
Duration : 51mn 16s
Bit rate mode : Constant
Bit rate : 448 Kbps
Channel(s) : 6 channels
Channel positions : Front: L C R, Side: L R, LFE
Sampling rate : 48.0 KHz
Bit depth : 16 bits
Compression mode : Lossy
Stream size : 164 MiB (7%)
Language : English
Default : No
Forced : No

Text
ID : 4
Format : UTF-8
Codec ID : S_TEXT/UTF8
Codec ID/Info : UTF-8 Plain Text
Language : Russian
Default : No
Forced : No

pb.wtf



Скачать BBC: Планета Земля через торрент http://pic1.kartinco.top/images/10/35uzb.jpg Скачать фильм BBC: Планета Земля через торрент бесплантно в хорошем качестве Описание:Создатели сериала «Голубая планета» сняли новый фильм, показывающий Землю такой, какой ее еще никто не видел прежде. Невероятные ... 10 10 4
Info! Золотая раздача, скачанное не засчитывается.
Торрент: Зарегистрирован [2015-07-27 11:28] · скачан: 205 раз
Статус: √ проверено
Размер: 25.78 GB
Как cкачать? Как скачать BBC: Планета Земля через торрент | UTorrent

% Раздел Тема Автор DL S | L
BBC [ 23.7 GB ] BBC: Планета Земля / BBC: Planet Earth [2006 документальный HDTV] lejeboka Скачать
1 | 0
BBC [ 9.13 GB ] BBC: Планета Земля / BBC:Planet Earth . [11 серий из 11]. [2006 документальный HDRip от R.G.RealMT] nickson-82 Скачать
1 | 0
BBC [ 4.36 GB ] BBC: Планета Земля / BBC: Planet Earth [Научно-популярный сериал DVDRip] DEVI Скачать
1 | 0

28-11-2019 20:33  

Отключить всю рекламу на сайте

    Дорогой пользователь! Огромная просьба, поблагодарите релизера, оцените раздачу и оставьте свои комментарий, если Вы скачали BBC: Планета Земля через торрент бесплатно! Внесите свою лепту в развитие PiratBit!
    Комментировать посты могут только пользователи прошедшие не сложную регистрацию
    Показать сообщения:    

    BBC: Планета Земля через торрент
    Скачать бесплатно BBC: Планета Земля
    BBC: Планета Земля скачать торрент
    BBC: Планета Земля смотреть онлайн
    Cкачать фильм BBC: Планета Земля бесплатно
    BBC: Планета Земля скачать торрент в хорошем качестве
    BBC: Планета Земля смотреть онлайн бесплатно в хорошем качестве


    Вы не можете начинать темы
    Вы не можете отвечать на сообщения
    Вы не можете редактировать свои сообщения
    Вы не можете удалять свои сообщения
    Вы не можете голосовать в опросах
    Вы не можете прикреплять файлы к сообщениям
    Вы можете скачивать файлы