Ссылка на приватное зеркало нашего сайта всего за 1$. Внимание количество ограничено!!!

2 сезон

iTunes

1 сезон

1

2 сезон

2 сезон

iTunes

1 сезон

RePack

30

Ultimate

ВАЖНО

ИГРА 18+

pack

RePack

MK11
pack

Забери бонус

RePack

jed

!!Акция!!

Alien_Rage

RePack

fifa19

RePack

Assassins Creed: Odyssey

RePack

NEED FOR SPEED™ PAYBACK

4 сезон

9 сезон

Бесстыжие 9 сезон

Все сериалы

все сериалы на PB.wtf

RePack

FAR CRY 5
  

Красотки в бегах / Hot Pursuit (Энн Флетчер) [2015, боевик, комедия, криминал, BDRip 720p] DUB - Звук с TS pb.wtf

Скачать  

28-07-2015 08:08 Красотки в бегах Скачать торрент  

Красотки в бегах / Hot Pursuit
«Вооружены и типа опасны»


Год выпуска: 2015
Страна: США
Жанр: боевик, комедия, криминал
Продолжительность: 01:27:31
Перевод: Дубляж - [Звук с TS]
Режиссер: Энн Флетчер
В ролях: Риз Уизерспун (Cooper), София Вергара (Daniella Riva), Мэттью Дель Негро (Detective Hauser), Майкл Мосли (Detective Dixon), Роберт Казински (Randy), Ричард Т. Джонс (Detective Jackson), Бенни Нивз (Jesus), Майкл Рэй Эскамиллья (Angel), Хоакин Косио (Vicente Cortez), Джон Кэрролл Линч (Captain Emmett), Джим Гэффиган (Red), Майк Бирбиглия (Steve)
Описание:
История об офицере полиции и заключенной, которые волей судьбы оказываются в бегах в Техасе.
, MPAA: PG-13 - Детям до 13 лет просмотр не желателен
Качество: BDRip 720p
Формат: MKV
Видео кодек: AVC
Аудио кодек: AC3, DTS
Видео: AVC, 1280x536 (2.40:1), 5635 kbps, 23,976 fps, 0,343 bpp
Аудио №1: русский / AC3 / 2.0 / 48 kHz / 256 kbps / 16 bit
Аудио №2: английский / DTS / 5.1 / 48 kHz / 1510 kbps / 24 bit
Навигация по главам: есть

Код:

General
Unique ID                                : 206880220243668087704437705032467491899 (0x9BA3AE5D0516A524A61B6322C0002C3B)
Complete name                            : E:\торент\KPaC0tK1.B.begaX.2015.Dc.BDRip.720p.mkv
Format                                   : Matroska
Format version                           : Version 2
File size                                : 4.52 GiB
Duration                                 : 1h 27mn
Overall bit rate                         : 7 399 Kbps
Encoded date                             : UTC 2015-07-27 22:01:38
Writing application                      : mkvmerge v8.2.0 ('World of Adventure') 64bit
Writing library                          : libebml v1.3.1 + libmatroska v1.4.2
DURATION                                 : 01:27:31.232000000
NUMBER_OF_FRAMES                         : 164101
NUMBER_OF_BYTES                          : 168039424
_STATISTICS_WRITING_APP                  : mkvmerge v8.2.0 ('World of Adventure') 64bit
_STATISTICS_WRITING_DATE_UTC             : 2015-07-27 22:01:38
_STATISTICS_TAGS                         : BPS DURATION NUMBER_OF_FRAMES NUMBER_OF_BYTES

Video
ID                                       : 1
Format                                   : AVC
Format/Info                              : Advanced Video Codec
Format profile                           : High@L4.1
Format settings, CABAC                   : Yes
Format settings, ReFrames                : 5 frames
Codec ID                                 : V_MPEG4/ISO/AVC
Duration                                 : 1h 27mn
Bit rate                                 : 5 635 Kbps
Width                                    : 1 280 pixels
Height                                   : 536 pixels
Display aspect ratio                     : 2.40:1
Frame rate                               : 23.976 fps
Color space                              : YUV
Chroma subsampling                       : 4:2:0
Bit depth                                : 8 bits
Scan type                                : Progressive
Bits/(Pixel*Frame)                       : 0.343
Stream size                              : 3.35 GiB (74%)
Writing library                          : x264 core 146 r2538 121396c
Encoding settings                        : cabac=1 / ref=5 / deblock=1:0:0 / analyse=0x3:0x133 / me=umh / subme=7 / psy=1 / psy_rd=1.00:0.00 / mixed_ref=1 / me_range=16 / chroma_me=1 / trellis=1 / 8x8dct=1 / cqm=0 / deadzone=21,11 / fast_pskip=0 / chroma_qp_offset=-2 / threads=60 / lookahead_threads=4 / sliced_threads=0 / nr=0 / decimate=1 / interlaced=0 / bluray_compat=0 / constrained_intra=0 / bframes=3 / b_pyramid=2 / b_adapt=1 / b_bias=0 / direct=1 / weightb=1 / open_gop=0 / weightp=2 / keyint=250 / keyint_min=23 / scenecut=40 / intra_refresh=0 / rc_lookahead=40 / rc=2pass / mbtree=1 / bitrate=5635 / ratetol=1.0 / qcomp=0.60 / qpmin=0 / qpmax=69 / qpstep=4 / cplxblur=20.0 / qblur=0.5 / ip_ratio=1.40 / aq=1:1.00
Language                                 : English
Default                                  : Yes
Forced                                   : No
DURATION                                 : 01:27:31.213000000
NUMBER_OF_FRAMES                         : 125903
NUMBER_OF_BYTES                          : 3696375050
_STATISTICS_WRITING_APP                  : mkvmerge v8.2.0 ('World of Adventure') 64bit
_STATISTICS_WRITING_DATE_UTC             : 2015-07-27 22:01:38
_STATISTICS_TAGS                         : BPS DURATION NUMBER_OF_FRAMES NUMBER_OF_BYTES

Audio #1
ID                                       : 2
Format                                   : AC-3
Format/Info                              : Audio Coding 3
Mode extension                           : CM (complete main)
Codec ID                                 : A_AC3
Duration                                 : 1h 27mn
Bit rate mode                            : Constant
Bit rate                                 : 256 Kbps
Channel(s)                               : 2 channels
Channel positions                        : Front: L R
Sampling rate                            : 48.0 KHz
Bit depth                                : 16 bits
Compression mode                         : Lossy
Stream size                              : 160 MiB (3%)
Default                                  : Yes
Forced                                   : No

Audio #2
ID                                       : 3
Format                                   : DTS
Format/Info                              : Digital Theater Systems
Codec ID                                 : A_DTS
Duration                                 : 1h 27mn
Bit rate mode                            : Constant
Bit rate                                 : 1 510 Kbps
Channel(s)                               : 6 channels
Channel positions                        : Front: L C R, Side: L R, LFE
Sampling rate                            : 48.0 KHz
Bit depth                                : 24 bits
Compression mode                         : Lossy
Stream size                              : 945 MiB (20%)
Language                                 : English
Default                                  : No
Forced                                   : No

Menu
00:00:00.000                             : en:00:00:00.000
00:10:39.347                             : en:00:10:39.347
00:19:56.779                             : en:00:19:56.779
00:29:43.699                             : en:00:29:43.699
00:40:24.672                             : en:00:40:24.672
00:50:18.557                             : en:00:50:18.557
00:59:32.235                             : en:00:59:32.235
01:10:17.713                             : en:01:10:17.713
01:22:43.917                             : en:01:22:43.917

pb.wtf



Торрент не зареган: Не зарегистрирован ||
Добавлен: 2015-07-28 08:05
Скачано: 0 раз

28-11-2019 20:33  

Отключить всю рекламу на сайте

    Дорогой пользователь! Огромная просьба, поблагодарите релизера, оцените раздачу и оставьте свои комментарий, если Вы скачали Красотки в бегах через торрент бесплатно! Внесите свою лепту в развитие PiratBit!
    Комментировать посты могут только пользователи прошедшие не сложную регистрацию
    Показать сообщения:    

    Красотки в бегах через торрент
    Скачать бесплатно Красотки в бегах
    Красотки в бегах скачать торрент
    Красотки в бегах смотреть онлайн
    Cкачать фильм Красотки в бегах бесплатно
    Красотки в бегах скачать торрент в хорошем качестве
    Красотки в бегах смотреть онлайн бесплатно в хорошем качестве


    Вы не можете начинать темы
    Вы не можете отвечать на сообщения
    Вы не можете редактировать свои сообщения
    Вы не можете удалять свои сообщения
    Вы не можете голосовать в опросах
    Вы не можете прикреплять файлы к сообщениям
    Вы можете скачивать файлы