Ссылка на приватное зеркало нашего сайта всего за 1$. Внимание количество ограничено!!!

2 сезон

iTunes

1 сезон

1

2 сезон

2 сезон

iTunes

1 сезон

RePack

30

Ultimate

ВАЖНО

ИГРА 18+

pack

RePack

MK11
pack

Забери бонус

RePack

jed

!!Акция!!

Alien_Rage

RePack

fifa19

RePack

Assassins Creed: Odyssey

RePack

NEED FOR SPEED™ PAYBACK

4 сезон

9 сезон

Бесстыжие 9 сезон

Все сериалы

все сериалы на PB.wtf

RePack

FAR CRY 5
  

Траур / The Mourning (Марк Клебанофф / Marc Clebanoff) [2015, США, триллер, драма, детектив, WEB-DLRip, Любительский (двухголосый)[den904, DeadSno] pb.wtf

Траур через торрент pb.wtf

Размер: 1.45 GB | Добавлен: 5 лет 3 мес. назад | Торрент скачан:138 раз
Скачать  

28-07-2015 10:45 Траур Скачать торрент  

Траур / The Mourning


  • Год выпуска: 2015
  • Страна: США
  • Жанр: триллер, драма, детектив
  • Продолжительность: 01:41:39
  • Перевод: Любительский двухголосый [den904 & DeadSno], перевод [Антонио]

  • Режиссер: Марк Клебанофф / Marc Clebanoff
  • В ролях:

    Майкл Рене Уолтон (Aaron), Луис Мэндилор (David), Доминик Суэйн (The Suited Woman), Сэлли МакДональд (Lucey), Кинга Филиппс (Andrea), Ларри Хэнкин (Dad), Питер Добсон (Mike), Боб Спиллман (James), Фрэнк Крюгер (Deputy Frank), Эда Менделл (Erin), Брук Льюис (Lisa), Келси Станко (Lindsey)

  • Описание:
    Эрон, которого считают погибшим на первой войне в Ираке, неожиданно возвращается домой спустя 20 лет, не постаревшим ни на день. Конспирологи считают, что он был похищен инопланетянами и не останется в городе надолго...
  • Рейтинг:



  • Качество: WEB-DLRip
  • Формат: :AVI
  • Видео кодек: XviD
  • Аудио кодек: MP3
  • Видео: 720x288 (2.452), 1758 kbps, 23,976 fps, 0,354 bpp
  • Аудио: 2.0 / 48 kHz / 192 kbps
  • Релиз от: GEKADOL

    Код:

    General
    Complete name                            : D:\Фильмы\The.Mourning.2015.DVO.avi
    Format                                   : AVI
    Format/Info                              : Audio Video Interleave
    File size                                : 1.45 GiB
    Duration                                 : 1h 41mn
    Overall bit rate                         : 2 040 Kbps

    Video
    ID                                       : 0
    Format                                   : MPEG-4 Visual
    Format profile                           : Simple@L5
    Format settings, BVOP                    : No
    Format settings, QPel                    : No
    Format settings, GMC                     : No warppoints
    Format settings, Matrix                  : Default (H.263)
    Codec ID                                 : XVID
    Codec ID/Hint                            : XviD
    Duration                                 : 1h 41mn
    Bit rate                                 : 1 759 Kbps
    Width                                    : 720 pixels
    Height                                   : 288 pixels
    Display aspect ratio                     : 2.452
    Frame rate                               : 23.976 fps
    Color space                              : YUV
    Chroma subsampling                       : 4:2:0
    Bit depth                                : 8 bits
    Scan type                                : Progressive
    Compression mode                         : Lossy
    Bits/(Pixel*Frame)                       : 0.354
    Stream size                              : 1.25 GiB (86%)
    Writing library                          : Lavc56.13.100

    Audio
    ID                                       : 1
    Format                                   : MPEG Audio
    Format version                           : Version 1
    Format profile                           : Layer 3
    Mode                                     : Joint stereo
    Codec ID                                 : 55
    Codec ID/Hint                            : MP3
    Duration                                 : 1h 41mn
    Bit rate mode                            : Constant
    Bit rate                                 : 192 Kbps
    Channel(s)                               : 2 channels
    Sampling rate                            : 48.0 KHz
    Compression mode                         : Lossy
    Stream size                              : 140 MiB (9%)
    Alignment                                : Aligned on interleaves
    Writing library                          : LAME3.99r
    Encoding settings                        : -m j -V 4 -q 3 -lowpass 18.6 -b 192




    Скриншоты:


    pb.wtf



  • Скачать Траур через торрент http://i5.imageban.ru/out/2015/07/28/2e82b2e50d3edb0adfc3405af8bf2187.jpg Скачать фильм Траур через торрент бесплантно в хорошем качестве Описание: Эрон, которого считают погибшим на первой войне в Ираке, неожиданно возвращается домой спустя 20 лет, не постаревшим ни на день. ... 8.8 10 8
    Info! Золотая раздача, скачанное не засчитывается.
    Торрент: Зарегистрирован [2015-07-28 10:45] · скачан: 138 раз
    Статус: T временная
    Размер: 1.45 GB
    Как cкачать? Как скачать Траур через торрент | qTorrent

    % Раздел Тема Автор DL S | L
    T Фильмы (WEB-DL 720p, 1080p) [ 3.1 GB ] Траур / The Mourning [2015 WEB-DL 720p Любительский [den904 DeadSno] GEKADOL Скачать
    1 | 0

    28-11-2019 20:33  

    Отключить всю рекламу на сайте

    29-07-2015 13:03 Траур Скачать торрент  

    заманчивый сюжет....позолочу.
    только рецензий нет пока на кинопоиске....печалька...(((

    ПС: скажу так - фильм очень серьезный и тяжелый. Единственное, как мне кажется, актеров играющих 20-ти летних могли выбрать и помоложе...pb.wtf



      Дорогой пользователь! Огромная просьба, поблагодарите релизера, оцените раздачу и оставьте свои комментарий, если Вы скачали Траур через торрент бесплатно! Внесите свою лепту в развитие PiratBit!
      Комментировать посты могут только пользователи прошедшие не сложную регистрацию
      Показать сообщения:    

      Траур через торрент
      Скачать бесплатно Траур
      Траур скачать торрент
      Траур смотреть онлайн
      Cкачать фильм Траур бесплатно
      Траур скачать торрент в хорошем качестве
      Траур смотреть онлайн бесплатно в хорошем качестве


      Вы не можете начинать темы
      Вы не можете отвечать на сообщения
      Вы не можете редактировать свои сообщения
      Вы не можете удалять свои сообщения
      Вы не можете голосовать в опросах
      Вы не можете прикреплять файлы к сообщениям
      Вы можете скачивать файлы