Ссылка на приватное зеркало всего за 1$. Внимание количество ограничено!!!

iTunes

iTunes

iTunes

1

iTunes

iTunes

iTunes

iTunes

iTunes

30
pack

$ от Little Big

ВАЖНО

!!Акция!!

Alien_RageХит недели

RePack

Resident Evil 21

ИГРА 18+

pack

RePack

jed

!!Акция!!

Alien_Rage

RePack

fifa19

RePack

Assassins Creed: Odyssey

RePack

NEED FOR SPEED™ PAYBACK

4 сезон

9 сезон

Бесстыжие 9 сезон

Все сериалы

все сериалы на PB.wtf

RePack

FAR CRY 5
  

Траур / The Mourning (Марк Клебанофф / Marc Clebanoff) [2015, США, триллер, драма, детектив, WEB-DL 720p, Любительский (двухголосый)[den904, DeadSno] pb.wtf

Траур через торрент pb.wtf

Размер: 3.1 GB | Добавлен: 4 года 11 мес. назад | Торрент скачан:86 раз
Скачать  

28-07-2015 10:53 Траур Скачать торрент  

Траур / The Mourning


  • Год выпуска: 2015
  • Страна: США
  • Жанр: триллер, драма, детектив
  • Продолжительность: 01:41:38
  • Перевод: Любительский двухголосый [den904 & DeadSno], перевод [Антонио]
  • Субтитры: английские
  • Режиссер: Марк Клебанофф / Marc Clebanoff
  • В ролях:

    Майкл Рене Уолтон (Aaron), Луис Мэндилор (David), Доминик Суэйн (The Suited Woman), Сэлли МакДональд (Lucey), Кинга Филиппс (Andrea), Ларри Хэнкин (Dad), Питер Добсон (Mike), Боб Спиллман (James), Фрэнк Крюгер (Deputy Frank), Эда Менделл (Erin), Брук Льюис (Lisa), Келси Станко (Lindsey)

  • Описание:
    Эрон, которого считают погибшим на первой войне в Ираке, неожиданно возвращается домой спустя 20 лет, не постаревшим ни на день. Конспирологи считают, что он был похищен инопланетянами и не останется в городе надолго...
  • Рейтинг:



  • Качество: WEB-DL 720p
  • Формат: :MKV
  • Видео кодек: AVC
  • Аудио кодек: AC3
  • Видео: 1280x522 (2.452), 3893 kbps, 23,976 fps, 0,243 bpp
  • Аудио №1: русский / 2.0 / 48 kHz / 192 kbps / 16 bit |[den904 & DeadSno], перевод [Антонио]|
  • Аудио №2: английский / 2.0 / 48 kHz / 192 kbps / 16 bit
  • Релиз от: GEKADOL

    Код:

    General
    Unique ID                                : 187079009528328613031726631629863426710 (0x8CBE1B4CDEB09028B93C724476CE9A96)
    Complete name                            : D:\Фильмы\The Mourning (2015) .L2.WEB-DL.720p.mkv
    Format                                   : Matroska
    Format version                           : Version 4 / Version 2
    File size                                : 3.10 GiB
    Duration                                 : 1h 41mn
    Overall bit rate                         : 4 364 Kbps
    Movie name                               : RARBG.COM - The.Mourning.2015.720p.WEB-DL.AAC2.0.H264-RARBG
    Encoded date                             : UTC 2015-07-27 22:59:35
    Writing application                      : mkvmerge v7.3.0 ('Nouages') 32bit built on Oct 22 2014 18:44:01
    Writing library                          : libebml v1.3.0 + libmatroska v1.4.1

    Video
    ID                                       : 1
    Format                                   : AVC
    Format/Info                              : Advanced Video Codec
    Format profile                           : Main@L3.1
    Format settings, CABAC                   : No
    Format settings, ReFrames                : 2 frames
    Codec ID                                 : V_MPEG4/ISO/AVC
    Duration                                 : 1h 41mn
    Bit rate                                 : 3 893 Kbps
    Width                                    : 1 280 pixels
    Height                                   : 522 pixels
    Display aspect ratio                     : 2.452
    Frame rate                               : 23.976 fps
    Color space                              : YUV
    Chroma subsampling                       : 4:2:0
    Bit depth                                : 8 bits
    Scan type                                : Progressive
    Bits/(Pixel*Frame)                       : 0.243
    Stream size                              : 2.76 GiB (89%)
    Title                                    : The.Mourning.2015.720p.WEB-DL.AAC2.0.H264-RARBG
    Language                                 : English
    Default                                  : Yes
    Forced                                   : No
    Color primaries                          : BT.709-5, BT.1361, IEC 61966-2-4, SMPTE RP177
    Transfer characteristics                 : BT.709-5, BT.1361
    Matrix coefficients                      : BT.709-5, BT.1361, IEC 61966-2-4 709, SMPTE RP177

    Audio #1
    ID                                       : 5
    Format                                   : AC-3
    Format/Info                              : Audio Coding 3
    Mode extension                           : CM (complete main)
    Codec ID                                 : A_AC3
    Duration                                 : 1h 41mn
    Bit rate mode                            : Constant
    Bit rate                                 : 192 Kbps
    Channel(s)                               : 2 channels
    Channel positions                        : Front: L R
    Sampling rate                            : 48.0 KHz
    Bit depth                                : 16 bits
    Compression mode                         : Lossy
    Stream size                              : 140 MiB (4%)
    Language                                 : Russian
    Default                                  : Yes
    Forced                                   : No

    Audio #2
    ID                                       : 6
    Format                                   : AC-3
    Format/Info                              : Audio Coding 3
    Mode extension                           : CM (complete main)
    Codec ID                                 : A_AC3
    Duration                                 : 1h 41mn
    Bit rate mode                            : Constant
    Bit rate                                 : 192 Kbps
    Channel(s)                               : 2 channels
    Channel positions                        : Front: L R
    Sampling rate                            : 48.0 KHz
    Bit depth                                : 16 bits
    Compression mode                         : Lossy
    Stream size                              : 140 MiB (4%)
    Language                                 : English
    Default                                  : No
    Forced                                   : No

    Text #1
    ID                                       : 2
    Format                                   : UTF-8
    Codec ID                                 : S_TEXT/UTF8
    Codec ID/Info                            : UTF-8 Plain Text
    Language                                 : English
    Default                                  : No
    Forced                                   : No

    Text #2
    ID                                       : 3
    Format                                   : UTF-8
    Codec ID                                 : S_TEXT/UTF8
    Codec ID/Info                            : UTF-8 Plain Text
    Default                                  : Yes
    Forced                                   : No

    Text #3
    ID                                       : 4
    Format                                   : UTF-8
    Codec ID                                 : S_TEXT/UTF8
    Codec ID/Info                            : UTF-8 Plain Text
    Default                                  : No
    Forced                                   : No

    Menu
    00:00:00.000                             : en:Chapter 1
    00:10:00.000                             : en:Chapter 2
    00:20:00.000                             : en:Chapter 3
    00:30:00.000                             : en:Chapter 4
    00:40:00.000                             : en:Chapter 5
    00:50:00.000                             : en:Chapter 6
    01:00:00.000                             : en:Chapter 7
    01:10:00.000                             : en:Chapter 8
    01:20:00.000                             : en:Chapter 9
    01:30:00.000                             : en:Chapter 10




    Скриншоты:


    pb.wtf



  • Скачать Траур через торрент http://i2.imageban.ru/out/2015/07/28/797dc14501e41249509c2ded2f6aa1d6.jpg Скачать фильм Траур через торрент бесплантно в хорошем качестве Описание: Эрон, которого считают погибшим на первой войне в Ираке, неожиданно возвращается домой спустя 20 лет, не постаревшим ни на день. ... 8.7 10 7
    Торрент: Зарегистрирован [2015-07-28 10:53] · скачан: 86 раз
    Статус: T временная
    Размер: 3.1 GB
    Как cкачать? Как скачать Траур через торрент | qTorrent

    % Раздел Тема Автор DL S | L
    T Фильмы 2015 (Звук TS, Cam, VO, DVO) [ 1.45 GB ] Траур / The Mourning [2015 WEB-DLRip Любительский [den904 DeadSno] GEKADOL Скачать
    1 | 0

    28-11-2019 20:33  

    Отключить всю рекламу на сайте

      Дорогой пользователь! Огромная просьба, поблагодарите релизера, оцените раздачу и оставьте свои комментарий, если Вы скачали Траур через торрент бесплатно! Внесите свою лепту в развитие PiratBit!
      Комментировать посты могут только пользователи прошедшие не сложную регистрацию
      Показать сообщения:    

      Траур через торрент
      Скачать бесплатно Траур
      Траур скачать торрент
      Траур смотреть онлайн
      Cкачать фильм Траур бесплатно
      Траур скачать торрент в хорошем качестве
      Траур смотреть онлайн бесплатно в хорошем качестве


      Вы не можете начинать темы
      Вы не можете отвечать на сообщения
      Вы не можете редактировать свои сообщения
      Вы не можете удалять свои сообщения
      Вы не можете голосовать в опросах
      Вы не можете прикреплять файлы к сообщениям
      Вы можете скачивать файлы