Ссылка на приватное зеркало нашего сайта всего за 1$. Внимание количество ограничено!!!

2 сезон

iTunes

1 сезон

1

2 сезон

2 сезон

iTunes

1 сезон

RePack

30

Ultimate

ВАЖНО

ИГРА 18+

pack

RePack

MK11
pack

Забери бонус

RePack

jed

!!Акция!!

Alien_Rage

RePack

fifa19

RePack

Assassins Creed: Odyssey

RePack

NEED FOR SPEED™ PAYBACK

4 сезон

9 сезон

Бесстыжие 9 сезон

Все сериалы

все сериалы на PB.wtf

RePack

FAR CRY 5
  

Форсаж : Антология / The Fast and the Furious : Antology [2001-2015, США, Германия, боевик, триллер, криминал, BDRip-AVC 60fps, Дубляж] от R.G. HD-Films pb.wtf

Форсаж : Антология через торрент pb.wtf

Размер: 25.55 GB | Добавлен: 5 лет 3 мес. назад | Торрент скачан:515 раз
Скачать  

28-07-2015 12:17 Форсаж : Антология Скачать торрент  


Название: Форсаж
Оригинальное название: The Fast and the Furious
Год выпуска: 2001
Страна: США, Германия
Жанр: боевик, триллер, криминал
Продолжительность: 01:47:14
Перевод: Дубляж
Субтитры: русские (Форсированные), русские (Полные), английские (Полные)
Режиссер: Роб Коэн / Rob Cohen
В ролях: Пол Уокер (Brian O'Conner), Вин Дизель (Dominic Toretto), Мишель Родригес (Letty), Джордана Брюстер (Mia Toretto), Мэтт Шульце (Vince), Рик Юн (Johnny Tran), Чэд Линдберг (Jesse), Джонни Стронг (Leon), Тед Левайн (Sgt. Tanner), Том Бэрри (Agent Bilkins), Джа Рул (Edwin), Вито Руджинис (Harry)
Описание:
Его зовут Брайан, и он - фанатик турбин и нитроускорителей. Его цель - быть принятым в автобанду легендарного Доминика Торетто, чемпиона опасных и незаконных уличных гонок. Но это лишь часть правды... Брайан также полицейский, имеющий задание войти в доверие к Торетто, подозреваемому в причастности к дерзким грабежам трейлеров, совершенным прямо «с колес».
Но чем больше доверяет нахальному новичку харизматичный Доминик, тем больше проникается герой идеалами «ангелов дорог». И тем меньше ему хочется выполнять свою миссию. И вот, наступает момент, когда Брайану придется выбирать между дружбой и долгом. И выбирать на скорости в 200 километров в час...
Рейтинг
kinopoisk.ru: 7.730 (94 670)
imdb.com: 6.70 (239 966)
MPAA: PG-13 - Детям до 13 лет просмотр не желателен
Качество: BDRip-AVC 60fps
Формат: MKV
Видео кодек: AVC
Аудио кодек:AC3
Видео: AVC, 1024x432 (2.35:1), 4000 kbps, 59,940 fps, 0,151 bpp
Аудио: русский / AC3 / 5.1 / 48 kHz / 448 kbps / 16 bit |Дубляж|
Навигация по главам: есть

General
Unique ID : 229670946667340383159331506521324665710 (0xACC903EE41645E40B795377090C43B6E)
Complete name : E:\Форсаж BDRip-AVC 60fps R.G. HD-Films\Форсаж 1.mkv
Format : Matroska
Format version : Version 4 / Version 2
File size : 3.32 GiB
Duration : 1h 47mn
Overall bit rate : 4 438 Kbps
Movie name : Tiberiumsun69
Encoded date : UTC 2015-07-22 14:49:33
Writing application : mkvmerge v7.9.0 ('Birds') 64bit
Writing library : libebml v1.3.1 + libmatroska v1.4.2
Attachment : Yes

Video
ID : 1
Format : AVC
Format/Info : Advanced Video Codec
Format profile : High@L4.1
Format settings, CABAC : Yes
Format settings, ReFrames : 4 frames
Codec ID : V_MPEG4/ISO/AVC
Duration : 1h 47mn
Bit rate : 4 000 Kbps
Width : 1 024 pixels
Height : 432 pixels
Display aspect ratio : 2.35:1
Frame rate : 59.940 fps
Color space : YUV
Chroma subsampling : 4:2:0
Bit depth : 8 bits
Scan type : Progressive
Bits/(Pixel*Frame) : 0.151
Stream size : 2.92 GiB (88%)
Title : Tiberiumsun69
Writing library : x264 core 146 r2538 121396c
Encoding settings : cabac=1 / ref=3 / deblock=1:0:0 / analyse=0x3:0x113 / me=umh / subme=9 / psy=1 / psy_rd=1.00:0.10 / mixed_ref=1 / me_range=32 / chroma_me=1 / trellis=2 / 8x8dct=1 / cqm=0 / deadzone=21,11 / fast_pskip=0 / chroma_qp_offset=-3 / threads=12 / lookahead_threads=3 / sliced_threads=0 / nr=0 / decimate=1 / interlaced=0 / bluray_compat=0 / constrained_intra=0 / bframes=16 / b_pyramid=2 / b_adapt=2 / b_bias=0 / direct=3 / weightb=1 / open_gop=0 / weightp=2 / keyint=600 / keyint_min=59 / scenecut=40 / intra_refresh=0 / rc_lookahead=40 / rc=2pass / mbtree=0 / bitrate=4000 / ratetol=1.0 / qcomp=0.60 / qpmin=0 / qpmax=69 / qpstep=4 / cplxblur=20.0 / qblur=0.5 / vbv_maxrate=50000 / vbv_bufsize=62500 / nal_hrd=none / filler=0 / ip_ratio=1.40 / pb_ratio=1.30 / aq=1:1.00
Language : English
Default : Yes
Forced : No

Audio
ID : 2
Format : AC-3
Format/Info : Audio Coding 3
Mode extension : CM (complete main)
Codec ID : A_AC3
Duration : 1h 47mn
Bit rate mode : Constant
Bit rate : 448 Kbps
Channel(s) : 6 channels
Channel positions : Front: L C R, Side: L R, LFE
Sampling rate : 48.0 KHz
Bit depth : 16 bits
Compression mode : Lossy
Stream size : 344 MiB (10%)
Title : Дубляж
Language : Russian
Default : Yes
Forced : No

Text #1
ID : 3
Format : UTF-8
Codec ID : S_TEXT/UTF8
Codec ID/Info : UTF-8 Plain Text
Title : Форсированные
Language : Russian
Default : Yes
Forced : No

Text #2
ID : 4
Format : UTF-8
Codec ID : S_TEXT/UTF8
Codec ID/Info : UTF-8 Plain Text
Title : Полные
Language : Russian
Default : No
Forced : No

Text #3
ID : 5
Format : UTF-8
Codec ID : S_TEXT/UTF8
Codec ID/Info : UTF-8 Plain Text
Title : Полные
Language : English
Default : No
Forced : No

Menu
00:00:00.000 : en:Chapter 01
00:02:56.718 : en:Chapter 02
00:10:20.244 : en:Chapter 03
00:15:07.197 : en:Chapter 04
00:26:40.473 : en:Chapter 05
00:29:59.130 : en:Chapter 06
00:34:42.872 : en:Chapter 07
00:38:08.244 : en:Chapter 08
00:44:56.402 : en:Chapter 09
00:55:26.489 : en:Chapter 10
00:58:40.433 : en:Chapter 11
01:01:45.743 : en:Chapter 12
01:09:25.119 : en:Chapter 13
01:12:02.026 : en:Chapter 14
01:15:23.685 : en:Chapter 15
01:20:44.172 : en:Chapter 16
01:29:59.519 : en:Chapter 17
01:34:58.317 : en:Chapter 18
01:38:05.462 : en:Chapter 19
01:39:57.658 : en:Chapter 20

Название: Двойной форсаж
Оригинальное название: 2 Fast 2 Furious
Год выпуска: 2003
Страна: США, Германия
Жанр: боевик, криминал
Продолжительность: 01:47:35
Перевод: Дубляж
Субтитры: русские (Форсированные), русские (Полные), английские (Полные)
Режиссер: Джон Синглтон / John Singleton
В ролях: Пол Уокер (Brian O'Conner), Тайриз Гибсон (Roman Pearce), Ева Мендес (Monica Fuentes), Коул Хаузер (Carter Verone), Лудакрис (Tej), Том Бэрри (Agent Bilkins), Джеймс Римар (Agent Markham), Девон Аоки (Suki), Мэтт Галлини (Enrique), Роберто «Санс» Санчес (Roberto), Амори Ноласко (Orange Julius), Майкл Или (Slap Jack)
Описание:
Бывший полицейский Брайан О`Коннер вместе с напарником Романом Пирсом собираются перевезти крупную сумму «грязных» денег известного мафиози Картера Верона в качестве его подручных. Но на самом деле эта работа является только прикрытием для Брайана, который вместе с тайным агентом Моникой Фуэнтес должны уличить изворотливого преступника...
Рейтинг
kinopoisk.ru: 7.165 (62 795)
imdb.com: 5.80 (159 636)
MPAA: PG-13 - Детям до 13 лет просмотр не желателен
Качество: BDRip-AVC 60fps
Формат: MKV
Видео кодек: AVC
Аудио кодек:AC3
Видео: AVC, 1024x432 (2.35:1), 4000 kbps, 59,940 fps, 0,151 bpp
Аудио: русский / AC3 / 5.1 / 48 kHz / 640 kbps / 16 bit |Дубляж|
Навигация по главам: есть

General
Unique ID : 219487708531477835472754202259231807825 (0xA51FCB86FE103BFC944F32406F8F1951)
Complete name : E:\Форсаж BDRip-AVC 60fps R.G. HD-Films\Форсаж 2.mkv
Format : Matroska
Format version : Version 4 / Version 2
File size : 3.49 GiB
Duration : 1h 47mn
Overall bit rate : 4 640 Kbps
Movie name : Tiberiumsun69
Encoded date : UTC 2015-07-22 14:58:18
Writing application : mkvmerge v7.9.0 ('Birds') 64bit
Writing library : libebml v1.3.1 + libmatroska v1.4.2
Attachment : Yes

Video
ID : 1
Format : AVC
Format/Info : Advanced Video Codec
Format profile : High@L4.1
Format settings, CABAC : Yes
Format settings, ReFrames : 4 frames
Codec ID : V_MPEG4/ISO/AVC
Duration : 1h 47mn
Bit rate : 4 000 Kbps
Width : 1 024 pixels
Height : 432 pixels
Display aspect ratio : 2.35:1
Frame rate : 59.940 fps
Color space : YUV
Chroma subsampling : 4:2:0
Bit depth : 8 bits
Scan type : Progressive
Bits/(Pixel*Frame) : 0.151
Stream size : 2.94 GiB (84%)
Writing library : x264 core 146 r2538 121396c
Encoding settings : cabac=1 / ref=3 / deblock=1:0:0 / analyse=0x3:0x113 / me=umh / subme=9 / psy=1 / psy_rd=1.00:0.10 / mixed_ref=1 / me_range=32 / chroma_me=1 / trellis=2 / 8x8dct=1 / cqm=0 / deadzone=21,11 / fast_pskip=0 / chroma_qp_offset=-3 / threads=12 / lookahead_threads=3 / sliced_threads=0 / nr=0 / decimate=1 / interlaced=0 / bluray_compat=0 / constrained_intra=0 / bframes=16 / b_pyramid=2 / b_adapt=2 / b_bias=0 / direct=3 / weightb=1 / open_gop=0 / weightp=2 / keyint=600 / keyint_min=59 / scenecut=40 / intra_refresh=0 / rc_lookahead=40 / rc=2pass / mbtree=0 / bitrate=4000 / ratetol=1.0 / qcomp=0.60 / qpmin=0 / qpmax=69 / qpstep=4 / cplxblur=20.0 / qblur=0.5 / vbv_maxrate=50000 / vbv_bufsize=62500 / nal_hrd=none / filler=0 / ip_ratio=1.40 / pb_ratio=1.30 / aq=1:1.00
Language : English
Default : Yes
Forced : No

Audio
ID : 2
Format : AC-3
Format/Info : Audio Coding 3
Mode extension : CM (complete main)
Codec ID : A_AC3
Duration : 1h 47mn
Bit rate mode : Constant
Bit rate : 640 Kbps
Channel(s) : 6 channels
Channel positions : Front: L C R, Side: L R, LFE
Sampling rate : 48.0 KHz
Bit depth : 16 bits
Compression mode : Lossy
Stream size : 493 MiB (14%)
Title : Дубляж
Language : Russian
Default : Yes
Forced : No

Text #1
ID : 3
Format : UTF-8
Codec ID : S_TEXT/UTF8
Codec ID/Info : UTF-8 Plain Text
Title : Форсированные
Language : Russian
Default : Yes
Forced : No

Text #2
ID : 4
Format : UTF-8
Codec ID : S_TEXT/UTF8
Codec ID/Info : UTF-8 Plain Text
Title : Полные
Language : Russian
Default : No
Forced : No

Text #3
ID : 5
Format : UTF-8
Codec ID : S_TEXT/UTF8
Codec ID/Info : UTF-8 Plain Text
Title : Полные
Language : English
Default : No
Forced : No

Menu
00:00:00.000 : en:Chapter 01
00:11:29.647 : en:Chapter 02
00:14:20.818 : en:Chapter 03
00:16:02.294 : en:Chapter 04
00:18:57.344 : en:Chapter 05
00:24:23.378 : en:Chapter 06
00:28:16.820 : en:Chapter 07
00:35:13.903 : en:Chapter 08
00:40:08.322 : en:Chapter 09
00:46:44.384 : en:Chapter 10
00:58:54.906 : en:Chapter 11
01:05:02.857 : en:Chapter 12
01:10:25.304 : en:Chapter 13
01:13:37.746 : en:Chapter 14
01:22:15.639 : en:Chapter 15
01:29:54.138 : en:Chapter 16
01:35:17.628 : en:Chapter 17
01:37:32.888 : en:Chapter 18
01:40:32.693 : en:Chapter 19

Название: Тройной форсаж: Токийский дрифт
Оригинальное название: The Fast and the Furious: Tokyo Drift
Год выпуска: 2006
Страна: США, Германия
Жанр: боевик, триллер, драма, криминал
Продолжительность: 01:44:14
Перевод: Дубляж
Субтитры: русские (Форсированные), русские (Полные), английские (Полные)
Режиссер: Джастин Лин / Justin Lin
В ролях: Лукас Блэк (Sean Boswell), Бау Вау (Twinkie), Санг Кенг (Han), Брайан Ти (D.K.), Натали Келли (Neela), Брайан Гудман (Major Boswell), Джейсон Дж. Тобин (Earl), Кейко Китагава (Reiko), Сонни Тиба (Uncle Kamata), Леонардо Нам (Morimoto), Закари Ти Брайан (Clay), Никки Гриффин (Cindy - Clay's Girlfriend)
Описание:
Шон Босуэлл - одинокий парень, который хочет казаться профи уличных гонок. Он бесшабашно гоняется по улицам города, пытаясь убежать от жизненных невзгод и наживая себе врагов среди местных властей. Когда Шону грозит тюрьма, его от греха подальше отсылают к отцу - профессиональному военному, который служит на военной базе в Японии.
В незнакомой стране, живущей по своим законам, Шон чувствует себя еще большим изгоем. Однако вскоре его американский приятель Твинки знакомит его с миром подпольного дрифт-рейсинга. Раньше Шон просто тупо гонялся по улицам, а здесь перед ним открылся целый мир своеобразного искусства из металла и резины, дороги которого оказались невообразимо круты на поворотах...
Рейтинг
kinopoisk.ru: 6.784 (55 979)
imdb.com: 5.90 (149 016)
MPAA: PG-13 - Детям до 13 лет просмотр не желателен
Качество: BDRip-AVC 60fps
Формат: MKV
Видео кодек: AVC
Аудио кодек:AC3
Видео: AVC, 1024x432 (2.35:1), 4000 kbps, 59,940 fps, 0,151 bpp
Аудио: русский / AC3 / 5.1 / 48 kHz / 640 kbps / 16 bit |Дубляж|
Навигация по главам: есть

General
Unique ID : 216395342355548337565842413821050639546 (0xA2CC3A1A7FD49BC69A4DDCE489EE54BA)
Complete name : E:\Форсаж BDRip-AVC 60fps R.G. HD-Films\Форсаж 3 Токийский дрифт.mkv
Format : Matroska
Format version : Version 4 / Version 2
File size : 3.38 GiB
Duration : 1h 44mn
Overall bit rate : 4 638 Kbps
Movie name : Tiberiumsun69
Encoded date : UTC 2015-07-22 15:42:09
Writing application : mkvmerge v7.9.0 ('Birds') 64bit
Writing library : libebml v1.3.1 + libmatroska v1.4.2
Attachment : Yes

Video
ID : 1
Format : AVC
Format/Info : Advanced Video Codec
Format profile : High@L4.1
Format settings, CABAC : Yes
Format settings, ReFrames : 4 frames
Codec ID : V_MPEG4/ISO/AVC
Duration : 1h 44mn
Bit rate : 4 000 Kbps
Width : 1 024 pixels
Height : 432 pixels
Display aspect ratio : 2.35:1
Frame rate : 59.940 fps
Color space : YUV
Chroma subsampling : 4:2:0
Bit depth : 8 bits
Scan type : Progressive
Bits/(Pixel*Frame) : 0.151
Stream size : 2.84 GiB (84%)
Title : Tiberiumsun69
Writing library : x264 core 146 r2538 121396c
Encoding settings : cabac=1 / ref=3 / deblock=1:0:0 / analyse=0x3:0x113 / me=umh / subme=9 / psy=1 / psy_rd=1.00:0.10 / mixed_ref=1 / me_range=32 / chroma_me=1 / trellis=2 / 8x8dct=1 / cqm=0 / deadzone=21,11 / fast_pskip=0 / chroma_qp_offset=-3 / threads=12 / lookahead_threads=3 / sliced_threads=0 / nr=0 / decimate=1 / interlaced=0 / bluray_compat=0 / constrained_intra=0 / bframes=16 / b_pyramid=2 / b_adapt=2 / b_bias=0 / direct=3 / weightb=1 / open_gop=0 / weightp=2 / keyint=600 / keyint_min=59 / scenecut=40 / intra_refresh=0 / rc_lookahead=40 / rc=2pass / mbtree=0 / bitrate=4000 / ratetol=1.0 / qcomp=0.60 / qpmin=0 / qpmax=69 / qpstep=4 / cplxblur=20.0 / qblur=0.5 / vbv_maxrate=50000 / vbv_bufsize=62500 / nal_hrd=none / filler=0 / ip_ratio=1.40 / pb_ratio=1.30 / aq=1:1.00
Language : English
Default : Yes
Forced : No

Audio
ID : 2
Format : AC-3
Format/Info : Audio Coding 3
Mode extension : CM (complete main)
Codec ID : A_AC3
Duration : 1h 44mn
Bit rate mode : Constant
Bit rate : 640 Kbps
Channel(s) : 6 channels
Channel positions : Front: L C R, Side: L R, LFE
Sampling rate : 48.0 KHz
Bit depth : 16 bits
Compression mode : Lossy
Stream size : 477 MiB (14%)
Title : Дубляж
Language : Russian
Default : Yes
Forced : No

Text #1
ID : 3
Format : UTF-8
Codec ID : S_TEXT/UTF8
Codec ID/Info : UTF-8 Plain Text
Title : Форсированные
Language : Russian
Default : Yes
Forced : No

Text #2
ID : 4
Format : UTF-8
Codec ID : S_TEXT/UTF8
Codec ID/Info : UTF-8 Plain Text
Title : Полные
Language : Russian
Default : No
Forced : No

Text #3
ID : 5
Format : UTF-8
Codec ID : S_TEXT/UTF8
Codec ID/Info : UTF-8 Plain Text
Title : Полные
Language : English
Default : No
Forced : No

Menu
00:00:00.000 : en:Chapter 01
00:03:04.434 : en:Chapter 02
00:09:43.499 : en:Chapter 03
00:12:10.688 : en:Chapter 04
00:16:15.391 : en:Chapter 05
00:20:16.840 : en:Chapter 06
00:26:36.469 : en:Chapter 07
00:32:56.849 : en:Chapter 08
00:41:14.305 : en:Chapter 09
00:46:34.833 : en:Chapter 10
00:52:55.255 : en:Chapter 11
00:58:20.121 : en:Chapter 12
01:01:46.244 : en:Chapter 13
01:05:50.488 : en:Chapter 14
01:08:56.090 : en:Chapter 15
01:16:14.611 : en:Chapter 16
01:20:31.409 : en:Chapter 17
01:26:53.249 : en:Chapter 18
01:34:59.944 : en:Chapter 19
01:37:33.848 : en:Chapter 20

Название: Форсаж 4
Оригинальное название: Fast & Furious
Год выпуска: 2009
Страна: США, Япония
Жанр: криминал, боевик, триллер, драма
Продолжительность: 01:46:45
Перевод: Дубляж
Субтитры: русские (Форсированные), русские (Полные), английские (Полные)
Режиссер: Джастин Лин / Justin Lin
В ролях: Вин Дизель (Dominic Toretto), Пол Уокер (Brian O'Conner), Джордана Брюстер (Mia), Галь Гадот (Gisele), Джон Ортис (Campos), Лас Алонсо (Fenix), Мишель Родригес (Letty), Джек Конли (Penning), Ши Уигхэм (Stasiak), Лиза Лапира (Trinh), Санг Кенг (Han), Тего Кальдерон (Tego)
Описание:
Когда кривая дорожка заставляет скрывающегося от правосудия Дома Торетто вернуться в Лос-Анджелес, вражда с агентом Брайаном О’Коннером вспыхивает с новой силой. Но у парочки обнаруживается общий противник, и Дому с Брайаном приходится заключить перемирие в надежде одержать над ним победу. Грабя конвои, роя подкопы и пересекая границы, они приходят к идеальной форме отмщения - педали газа, вдавленной до упора.
Рейтинг
kinopoisk.ru: 6.963 (71 504)
imdb.com: 6.60 (177 399)
MPAA: PG-13 - Детям до 13 лет просмотр не желателен
Качество: BDRip-AVC 60fps
Формат: MKV
Видео кодек: AVC
Аудио кодек:AC3
Видео: AVC, 1024x424 (2.40:1), 4000 kbps, 59,940 fps, 0,154 bpp
Аудио: русский / AC3 / 5.1 / 48 kHz / 640 kbps / 16 bit |Дубляж|
Навигация по главам: есть

General
Unique ID : 195040600590533065722425633130329028085 (0x92BB740BC9838D749CD6C3E4358E35F5)
Complete name : E:\Форсаж BDRip-AVC 60fps R.G. HD-Films\Форсаж 4.mkv
Format : Matroska
Format version : Version 4 / Version 2
File size : 3.46 GiB
Duration : 1h 46mn
Overall bit rate : 4 645 Kbps
Movie name : Tiberiumsun69
Encoded date : UTC 2015-07-22 15:55:42
Writing application : mkvmerge v7.9.0 ('Birds') 64bit
Writing library : libebml v1.3.1 + libmatroska v1.4.2
Attachment : Yes

Video
ID : 1
Format : AVC
Format/Info : Advanced Video Codec
Format profile : High@L4.1
Format settings, CABAC : Yes
Format settings, ReFrames : 4 frames
Codec ID : V_MPEG4/ISO/AVC
Duration : 1h 46mn
Bit rate : 4 000 Kbps
Width : 1 024 pixels
Height : 424 pixels
Display aspect ratio : 2.40:1
Frame rate : 59.940 fps
Color space : YUV
Chroma subsampling : 4:2:0
Bit depth : 8 bits
Scan type : Progressive
Bits/(Pixel*Frame) : 0.154
Stream size : 2.92 GiB (84%)
Title : Tiberiumsun69
Writing library : x264 core 146 r2538 121396c
Encoding settings : cabac=1 / ref=3 / deblock=1:0:0 / analyse=0x3:0x113 / me=umh / subme=9 / psy=1 / psy_rd=1.00:0.10 / mixed_ref=1 / me_range=32 / chroma_me=1 / trellis=2 / 8x8dct=1 / cqm=0 / deadzone=21,11 / fast_pskip=0 / chroma_qp_offset=-3 / threads=12 / lookahead_threads=3 / sliced_threads=0 / nr=0 / decimate=1 / interlaced=0 / bluray_compat=0 / constrained_intra=0 / bframes=16 / b_pyramid=2 / b_adapt=2 / b_bias=0 / direct=3 / weightb=1 / open_gop=0 / weightp=2 / keyint=600 / keyint_min=59 / scenecut=40 / intra_refresh=0 / rc_lookahead=40 / rc=2pass / mbtree=0 / bitrate=4000 / ratetol=1.0 / qcomp=0.60 / qpmin=0 / qpmax=69 / qpstep=4 / cplxblur=20.0 / qblur=0.5 / vbv_maxrate=50000 / vbv_bufsize=62500 / nal_hrd=none / filler=0 / ip_ratio=1.40 / pb_ratio=1.30 / aq=1:1.00
Language : English
Default : Yes
Forced : No

Audio
ID : 2
Format : AC-3
Format/Info : Audio Coding 3
Mode extension : CM (complete main)
Codec ID : A_AC3
Duration : 1h 46mn
Bit rate mode : Constant
Bit rate : 640 Kbps
Channel(s) : 6 channels
Channel positions : Front: L C R, Side: L R, LFE
Sampling rate : 48.0 KHz
Bit depth : 16 bits
Compression mode : Lossy
Stream size : 489 MiB (14%)
Title : Дубляж
Language : Russian
Default : Yes
Forced : No

Text #1
ID : 3
Format : UTF-8
Codec ID : S_TEXT/UTF8
Codec ID/Info : UTF-8 Plain Text
Title : Форсированные
Language : Russian
Default : Yes
Forced : No

Text #2
ID : 4
Format : UTF-8
Codec ID : S_TEXT/UTF8
Codec ID/Info : UTF-8 Plain Text
Title : Полные
Language : Russian
Default : No
Forced : No

Text #3
ID : 5
Format : UTF-8
Codec ID : S_TEXT/UTF8
Codec ID/Info : UTF-8 Plain Text
Title : Полные
Language : English
Default : No
Forced : No

Menu
00:00:00.000 : en:Chapter 01
00:07:26.237 : en:Chapter 02
00:11:46.956 : en:Chapter 03
00:16:46.588 : en:Chapter 04
00:24:24.087 : en:Chapter 05
00:29:05.410 : en:Chapter 06
00:34:05.168 : en:Chapter 07
00:37:30.790 : en:Chapter 08
00:46:07.347 : en:Chapter 09
00:53:37.214 : en:Chapter 10
00:58:14.824 : en:Chapter 11
01:04:49.218 : en:Chapter 12
01:07:29.879 : en:Chapter 13
01:12:01.650 : en:Chapter 14
01:14:46.523 : en:Chapter 15
01:20:36.164 : en:Chapter 16
01:25:03.264 : en:Chapter 17
01:29:09.385 : en:Chapter 18
01:35:54.999 : en:Chapter 19
01:39:24.917 : en:Chapter 20

Название: Форсаж 5
Оригинальное название: Fast Five
Год выпуска: 2011
Страна: США
Жанр: боевик, триллер, криминал
Продолжительность: 02:10:21
Перевод: Дубляж
Субтитры: русские (Полные),
английские (Полные),
Режиссер: Джастин Лин / Justin Lin
В ролях: Вин Дизель (Dominic Toretto), Пол Уокер (Brian O'Conner), Джордана Брюстер (Mia), Дуэйн Джонсон (Hobbs), Тайриз Гибсон (Roman), Лудакрис (Tej), Мэтт Шульце (Vince), Санг Кенг (Han), Галь Гадот (Gisele), Эльза Патаки (Elena), Тего Кальдерон (Leo), Дон Омар (Santos)
Описание:
Бывший полицейский Брайан О`Коннер вместе с бывалым лихачом Домиником Торетто совсем немного увлеклись жизнью вне закона. После того, как Брайан и Миа Торетто освободили Доминика, они не рискуют долго задерживаться на одном месте, так как являются желанной целью порядком недовольных копов.
Рейтинг
kinopoisk.ru: 7.571 (97 626)
imdb.com: 7.40 (255 150)
MPAA: PG-13 - Детям до 13 лет просмотр не желателен
Качество: BDRip-AVC 60fps
Формат: MKV
Видео кодек: AVC
Аудио кодек:AC3
Видео: AVC, 1024x432 (2.35:1), 3700 kbps, 59,940 fps, 0,140 bpp
Аудио: русский / AC3 / 5.1 / 48 kHz / 640 kbps / 16 bit |Дубляж|
Навигация по главам: есть

General
Unique ID : 174037617930533424020019898778671409616 (0x82EE6D0D2BC86E2B8608FE8083FC69D0)
Complete name : E:\Форсаж BDRip-AVC 60fps R.G. HD-Films\Форсаж 5.mkv
Format : Matroska
Format version : Version 4 / Version 2
File size : 3.96 GiB
Duration : 2h 10mn
Overall bit rate : 4 344 Kbps
Movie name : Tiberiumsun69
Encoded date : UTC 2015-07-22 16:10:14
Writing application : mkvmerge v7.9.0 ('Birds') 64bit
Writing library : libebml v1.3.1 + libmatroska v1.4.2
Attachment : Yes

Video
ID : 1
Format : AVC
Format/Info : Advanced Video Codec
Format profile : High@L4.1
Format settings, CABAC : Yes
Format settings, ReFrames : 4 frames
Codec ID : V_MPEG4/ISO/AVC
Duration : 2h 10mn
Bit rate : 3 700 Kbps
Width : 1 024 pixels
Height : 432 pixels
Display aspect ratio : 2.35:1
Frame rate : 59.940 fps
Color space : YUV
Chroma subsampling : 4:2:0
Bit depth : 8 bits
Scan type : Progressive
Bits/(Pixel*Frame) : 0.140
Stream size : 3.29 GiB (83%)
Title : Tiberiumsun69
Writing library : x264 core 146 r2538 121396c
Encoding settings : cabac=1 / ref=3 / deblock=1:0:0 / analyse=0x3:0x113 / me=umh / subme=11 / psy=1 / psy_rd=1.00:0.10 / mixed_ref=1 / me_range=32 / chroma_me=1 / trellis=2 / 8x8dct=1 / cqm=0 / deadzone=21,11 / fast_pskip=0 / chroma_qp_offset=-3 / threads=12 / lookahead_threads=3 / sliced_threads=0 / nr=0 / decimate=1 / interlaced=0 / bluray_compat=0 / constrained_intra=0 / bframes=16 / b_pyramid=2 / b_adapt=2 / b_bias=0 / direct=3 / weightb=1 / open_gop=0 / weightp=2 / keyint=600 / keyint_min=59 / scenecut=40 / intra_refresh=0 / rc_lookahead=40 / rc=2pass / mbtree=0 / bitrate=3700 / ratetol=1.0 / qcomp=0.60 / qpmin=0 / qpmax=69 / qpstep=4 / cplxblur=20.0 / qblur=0.5 / vbv_maxrate=50000 / vbv_bufsize=62500 / nal_hrd=none / filler=0 / ip_ratio=1.40 / pb_ratio=1.30 / aq=1:1.00
Language : English
Default : Yes
Forced : No

Audio
ID : 2
Format : AC-3
Format/Info : Audio Coding 3
Mode extension : CM (complete main)
Codec ID : A_AC3
Duration : 2h 10mn
Bit rate mode : Constant
Bit rate : 640 Kbps
Channel(s) : 6 channels
Channel positions : Front: L C R, Side: L R, LFE
Sampling rate : 48.0 KHz
Bit depth : 16 bits
Compression mode : Lossy
Stream size : 597 MiB (15%)
Title : Дубляж
Language : Russian
Default : Yes
Forced : No

Text #1
ID : 3
Format : UTF-8
Codec ID : S_TEXT/UTF8
Codec ID/Info : UTF-8 Plain Text
Title : Полные
Language : Russian
Default : No
Forced : No

Text #2
ID : 4
Format : UTF-8
Codec ID : S_TEXT/UTF8
Codec ID/Info : UTF-8 Plain Text
Title : Полные
Language : English
Default : No
Forced : No

Menu
00:00:00.000 : en:Chapter 01
00:07:45.673 : en:Chapter 02
00:17:29.423 : en:Chapter 03
00:23:01.797 : en:Chapter 04
00:28:21.533 : en:Chapter 05
00:34:55.593 : en:Chapter 06
00:40:46.277 : en:Chapter 07
00:48:41.543 : en:Chapter 08
00:55:20.275 : en:Chapter 09
01:03:09.911 : en:Chapter 10
01:10:44.615 : en:Chapter 11
01:18:25.826 : en:Chapter 12
01:22:36.159 : en:Chapter 13
01:27:58.690 : en:Chapter 14
01:31:53.382 : en:Chapter 15
01:39:13.280 : en:Chapter 16
01:47:00.747 : en:Chapter 17
01:54:50.091 : en:Chapter 18
01:59:15.189 : en:Chapter 19
02:03:24.480 : en:Chapter 20

Название: Форсаж 6
Оригинальное название: Furious 6
Год выпуска: 2013
Страна: США
Жанр: боевик, триллер, драма, криминал
Продолжительность: 02:11:02
Перевод: Дубляж
Субтитры: русские (Полные), английские (Полные)
Режиссер: Джастин Лин / Justin Lin
В ролях: Вин Дизель (Dominic Toretto), Пол Уокер (Brian O'Conner), Дуэйн Джонсон (Hobbs), Мишель Родригес (Letty), Люк Эванс (Shaw), Тайриз Гибсон (Roman), Лудакрис (Tej), Джина Карано (Riley), Джордана Брюстер (Mia), Санг Кенг (Han), Галь Гадот (Gisele), Эльза Патаки (Elena)
Описание:
После того как Доминик и Брайн побывали в Рио, где они ограбили и свергли империю вора в законе, их команда получила 100 миллионов, и наши герои оказались разбросаны по всему миру. Но их привычка вечно жить в бегах не даёт им покоя. Между тем, Хоббс отслеживал организацию смертельно опасных наёмников-водителей по двенадцати странам. Единственный способ остановить эту криминальную группу - это превзойти их на улицах, поэтому Хоббс просит Доминика собрать его элитную команду в Лондоне. За это он обещает полное помилование для Доминика и его друзей, чтобы они смогли наконец вернуться домой к своей семье.
Рейтинг
kinopoisk.ru: 6.999 (78 550)
imdb.com: 7.20 (268 962)
MPAA: PG-13 - Детям до 13 лет просмотр не желателен
Качество: BDRip-AVC 60fps
Формат: MKV
Видео кодек: AVC
Аудио кодек:AC3
Видео: AVC, 1024x432 (2.35:1), 3690 kbps, 59,940 fps, 0,139 bpp
Аудио: русский / AC3 / 5.1 / 48 kHz / 640 kbps / 16 bit |Дубляж|
Навигация по главам: есть

General
Unique ID : 203252337364024335342781370941833754777 (0x98E8F9ED75D848B69B09F4727CC83899)
Complete name : E:\Форсаж BDRip-AVC 60fps R.G. HD-Films\Форсаж 6.mkv
Format : Matroska
Format version : Version 4 / Version 2
File size : 3.97 GiB
Duration : 2h 11mn
Overall bit rate : 4 336 Kbps
Movie name : Tiberiumsun69
Encoded date : UTC 2015-07-23 00:06:29
Writing application : mkvmerge v7.9.0 ('Birds') 64bit
Writing library : libebml v1.3.1 + libmatroska v1.4.2
Attachment : Yes

Video
ID : 1
Format : AVC
Format/Info : Advanced Video Codec
Format profile : High@L4.1
Format settings, CABAC : Yes
Format settings, ReFrames : 4 frames
Codec ID : V_MPEG4/ISO/AVC
Duration : 2h 11mn
Bit rate : 3 690 Kbps
Width : 1 024 pixels
Height : 432 pixels
Display aspect ratio : 2.35:1
Frame rate : 59.940 fps
Color space : YUV
Chroma subsampling : 4:2:0
Bit depth : 8 bits
Scan type : Progressive
Bits/(Pixel*Frame) : 0.139
Stream size : 3.30 GiB (83%)
Title : Tiberiumsun69
Writing library : x264 core 146 r2538 121396c
Encoding settings : cabac=1 / ref=3 / deblock=1:0:0 / analyse=0x3:0x113 / me=umh / subme=11 / psy=1 / psy_rd=1.00:0.10 / mixed_ref=1 / me_range=32 / chroma_me=1 / trellis=2 / 8x8dct=1 / cqm=0 / deadzone=21,11 / fast_pskip=0 / chroma_qp_offset=-3 / threads=12 / lookahead_threads=3 / sliced_threads=0 / nr=0 / decimate=1 / interlaced=0 / bluray_compat=0 / constrained_intra=0 / bframes=16 / b_pyramid=2 / b_adapt=2 / b_bias=0 / direct=3 / weightb=1 / open_gop=0 / weightp=2 / keyint=600 / keyint_min=59 / scenecut=40 / intra_refresh=0 / rc_lookahead=40 / rc=2pass / mbtree=0 / bitrate=3690 / ratetol=1.0 / qcomp=0.60 / qpmin=0 / qpmax=69 / qpstep=4 / cplxblur=20.0 / qblur=0.5 / vbv_maxrate=50000 / vbv_bufsize=62500 / nal_hrd=none / filler=0 / ip_ratio=1.40 / pb_ratio=1.30 / aq=1:1.00
Language : English
Default : Yes
Forced : No

Audio
ID : 2
Format : AC-3
Format/Info : Audio Coding 3
Mode extension : CM (complete main)
Codec ID : A_AC3
Duration : 2h 11mn
Bit rate mode : Constant
Bit rate : 640 Kbps
Channel(s) : 6 channels
Channel positions : Front: L C R, Side: L R, LFE
Sampling rate : 48.0 KHz
Bit depth : 16 bits
Compression mode : Lossy
Stream size : 600 MiB (15%)
Title : Дубляж
Language : Russian
Default : Yes
Forced : No

Text #1
ID : 3
Format : UTF-8
Codec ID : S_TEXT/UTF8
Codec ID/Info : UTF-8 Plain Text
Title : Полные
Language : Russian
Default : No
Forced : No

Text #2
ID : 4
Format : UTF-8
Codec ID : S_TEXT/UTF8
Codec ID/Info : UTF-8 Plain Text
Title : Полные
Language : English
Default : No
Forced : No

Menu
00:00:00.000 : en:Chapter 01
00:04:21.010 : en:Chapter 02
00:10:19.118 : en:Chapter 03
00:15:35.267 : en:Chapter 04
00:19:18.574 : en:Chapter 05
00:24:32.721 : en:Chapter 06
00:30:23.404 : en:Chapter 07
00:36:28.477 : en:Chapter 08
00:44:01.305 : en:Chapter 09
00:50:50.255 : en:Chapter 10
00:56:54.327 : en:Chapter 11
01:04:53.931 : en:Chapter 12
01:10:14.293 : en:Chapter 13
01:19:13.457 : en:Chapter 14
01:25:41.177 : en:Chapter 15
01:34:53.688 : en:Chapter 16
01:41:48.560 : en:Chapter 17
01:48:31.838 : en:Chapter 18
01:57:48.811 : en:Chapter 19
02:03:04.418 : en:Chapter 20

Название: Форсаж 7
Оригинальное название: Furious Seven
Год выпуска: 2015
Страна: США
Жанр: боевик, триллер, криминал
Продолжительность: 02:17:19
Перевод: Дубляж
Субтитры: русские (Полные), английские (Полные)
Режиссер: Джеймс Ван / James Wan
В ролях: Вин Дизель (Dominic Toretto), Пол Уокер (Brian O'Conner), Джейсон Стэйтем (Deckard Shaw), Мишель Родригес (Letty), Дуэйн Джонсон (Hobbs), Тайриз Гибсон (Roman), Лудакрис (Tej), Натали Эммануэль (Ramsey), Джордана Брюстер (Mia), Курт Рассел (Mr. Nobody), Тони Джа (Kiet), Джимон Хонсу (Jakande)
Описание:
Они покорили Токио и Рио, Лос-Анджелес и Лондон. Но мир больше не играет по их правилам. Зной арабских пустынь, неприлично высокие небоскребы, миллионы долларов на колесах и очень, очень знаменитый злодей. Скорость не знает границ.
Рейтинг
kinopoisk.ru: 7.079 (61 820)
imdb.com: 7.50 (189 637)
MPAA: PG-13 - Детям до 13 лет просмотр не желателен
Качество: BDRip-AVC 60fps
Формат: MKV
Видео кодек: AVC
Аудио кодек:AC3
Видео: AVC, 1024x424 (2.40:1), 3495 kbps, 59,940 fps, 0,134 bpp
Аудио: русский / AC3 / 5.1 / 48 kHz / 640 kbps / 16 bit |Дубляж|
Навигация по главам: есть

General
Unique ID : 215423652705166876471168748791141692820 (0xA211161ADD3EA25B8BFE4822BAC2F594)
Complete name : E:\Форсаж BDRip-AVC 60fps R.G. HD-Films\Форсаж 7.mkv
Format : Matroska
Format version : Version 4 / Version 2
File size : 3.97 GiB
Duration : 2h 17mn
Overall bit rate : 4 137 Kbps
Movie name : Tiberiumsun69
Encoded date : UTC 2015-07-28 00:12:55
Writing application : mkvmerge v7.9.0 ('Birds') 64bit
Writing library : libebml v1.3.1 + libmatroska v1.4.2
Attachment : Yes

Video
ID : 1
Format : AVC
Format/Info : Advanced Video Codec
Format profile : High@L4.1
Format settings, CABAC : Yes
Format settings, ReFrames : 4 frames
Codec ID : V_MPEG4/ISO/AVC
Duration : 2h 17mn
Bit rate : 3 495 Kbps
Width : 1 024 pixels
Height : 424 pixels
Display aspect ratio : 2.40:1
Frame rate : 59.940 fps
Color space : YUV
Chroma subsampling : 4:2:0
Bit depth : 8 bits
Scan type : Progressive
Bits/(Pixel*Frame) : 0.134
Stream size : 3.28 GiB (83%)
Title : Tiberiumsun69
Writing library : x264 core 146 r2538 121396c
Encoding settings : cabac=1 / ref=3 / deblock=1:0:0 / analyse=0x3:0x113 / me=umh / subme=11 / psy=1 / psy_rd=1.00:0.10 / mixed_ref=1 / me_range=32 / chroma_me=1 / trellis=2 / 8x8dct=1 / cqm=0 / deadzone=21,11 / fast_pskip=0 / chroma_qp_offset=-3 / threads=12 / lookahead_threads=3 / sliced_threads=0 / nr=0 / decimate=1 / interlaced=0 / bluray_compat=0 / constrained_intra=0 / bframes=16 / b_pyramid=2 / b_adapt=2 / b_bias=0 / direct=3 / weightb=1 / open_gop=0 / weightp=2 / keyint=600 / keyint_min=59 / scenecut=40 / intra_refresh=0 / rc_lookahead=40 / rc=2pass / mbtree=0 / bitrate=3495 / ratetol=1.0 / qcomp=0.60 / qpmin=0 / qpmax=69 / qpstep=4 / cplxblur=20.0 / qblur=0.5 / vbv_maxrate=50000 / vbv_bufsize=62500 / nal_hrd=none / filler=0 / ip_ratio=1.40 / pb_ratio=1.30 / aq=1:1.00
Language : English
Default : Yes
Forced : No

Audio
ID : 2
Format : AC-3
Format/Info : Audio Coding 3
Mode extension : CM (complete main)
Codec ID : A_AC3
Duration : 2h 17mn
Bit rate mode : Constant
Bit rate : 640 Kbps
Channel(s) : 6 channels
Channel positions : Front: L C R, Side: L R, LFE
Sampling rate : 48.0 KHz
Bit depth : 16 bits
Compression mode : Lossy
Stream size : 629 MiB (15%)
Title : Дубляж
Language : Russian
Default : No
Forced : No

Text #1
ID : 3
Format : UTF-8
Codec ID : S_TEXT/UTF8
Codec ID/Info : UTF-8 Plain Text
Title : Полные
Language : Russian
Default : No
Forced : No

Text #2
ID : 4
Format : UTF-8
Codec ID : S_TEXT/UTF8
Codec ID/Info : UTF-8 Plain Text
Title : Полные
Language : English
Default : No
Forced : No

Menu
00:00:00.000 : en:1
00:03:59.000 : en:2
00:09:59.000 : en:3
00:15:08.000 : en:4
00:24:23.000 : en:5
00:31:54.000 : en:6
00:39:55.000 : en:7
00:44:51.000 : en:8
00:50:21.000 : en:9
01:00:41.000 : en:10
01:04:27.000 : en:11
01:12:25.000 : en:12
01:20:36.000 : en:13
01:30:48.000 : en:14
01:35:55.000 : en:15
01:43:07.000 : en:16
01:51:24.000 : en:17
01:55:58.000 : en:18
02:03:46.000 : en:19
02:08:58.000 : en:20
Просьба к переливающим на другие сайты, в оформлении указывайте пожалуйста авторство группы Авторская группа в ВК
pb.wtf



Скачать Форсаж : Антология через торрент http://i71.fastpic.ru/big/2015/0728/fa/707ca7fb6bdc0743f98d98527497a2fa.png Скачать фильм Форсаж : Антология через торрент бесплантно в хорошем качестве Описание: Его зовут Брайан, и он - фанатик турбин и нитроускорителей. Его цель - быть принятым в автобанду легендарного Доминика Торетто, ... 10 10 25
Info! Золотая раздача, скачанное не засчитывается.
Торрент: Зарегистрирован [2015-07-28 12:17] · скачан: 515 раз
Статус: √ проверено
Размер: 25.55 GB
Как cкачать? Как скачать Форсаж : Антология через торрент | qTorrent

% Раздел Тема Автор DL S | L
Сборники на DVD и Сиквелы [DVDrip, WEB-DLRip, HDrip, BDRip] [ 4.33 GB ] Форсаж / The Fast and the Furious [2001-2011 HDRip-AVC] DUB / от R.G. nICE Films Demonessa Скачать
1 | 0


Последний раз редактировалось: Tiberiumsun69 (2018-02-09 08:13), всего редактировалось 1 раз

28-11-2019 20:33  

Отключить всю рекламу на сайте

28-07-2015 13:44 Форсаж : Антология Скачать торрент  

Tiberiumsun69, Спасибо тебе за труды. Очень ценим то что ты делаешь для нас.pb.wtf



28-07-2015 13:57 Форсаж : Антология Скачать торрент  

h2o00, Стараюсь на пределе возможностей. :hmmm pb.wtf



28-07-2015 16:39 Форсаж : Антология Скачать торрент  

Молодец! Так держать pb.wtf



28-07-2015 17:25 Форсаж : Антология Скачать торрент  

ла 7 енн 1080ppb.wtf



29-07-2015 14:26 Форсаж : Антология Скачать торрент  

Naranjosgamer....Скорее всего про 1080р можете забытьpb.wtf



09-03-2020 13:28 Форсаж : Антология Скачать торрент  

Встаньте на раздачу плз!!!!!!!!!!!!!pb.wtf



16-07-2020 03:30 Форсаж : Антология Скачать торрент  

Почему не работает поиск и раздача???pb.wtf



    Дорогой пользователь! Огромная просьба, поблагодарите релизера, оцените раздачу и оставьте свои комментарий, если Вы скачали Форсаж : Антология через торрент бесплатно! Внесите свою лепту в развитие PiratBit!
    Комментировать посты могут только пользователи прошедшие не сложную регистрацию
    Показать сообщения:    

    Форсаж : Антология через торрент
    Скачать бесплатно Форсаж : Антология
    Форсаж : Антология скачать торрент
    Форсаж : Антология смотреть онлайн
    Cкачать фильм Форсаж : Антология бесплатно
    Форсаж : Антология скачать торрент в хорошем качестве
    Форсаж : Антология смотреть онлайн бесплатно в хорошем качестве


    Вы не можете начинать темы
    Вы не можете отвечать на сообщения
    Вы не можете редактировать свои сообщения
    Вы не можете удалять свои сообщения
    Вы не можете голосовать в опросах
    Вы не можете прикреплять файлы к сообщениям
    Вы можете скачивать файлы