Ссылка на приватное зеркало нашего сайта всего за 1$. Внимание количество ограничено!!!

2 сезон

iTunes

1 сезон

1

iTunes

iTunes

iTunes

1 сезон

RePack

30

ИГРА 18+

pack

ВАЖНО

!!Акция!!

Alien_RageХит недели

RePack

MK11
pack

Забери бонус

RePack

jed

!!Акция!!

Alien_Rage

RePack

fifa19

RePack

Assassins Creed: Odyssey

RePack

NEED FOR SPEED™ PAYBACK

4 сезон

9 сезон

Бесстыжие 9 сезон

Все сериалы

все сериалы на PB.wtf

RePack

FAR CRY 5
  

Гостья из будущего / Серии 1 - 5 из 5 (Павел Арсенов) [1984, СССР, фантастика, триллер, драма, мелодрама, приключения, семейный, DVDRip by keeper.52] SUB (2 x rus, eng) pb.wtf

Гостья из будущего через торрент pb.wtf

Размер: 5 GB | Добавлен: 5 лет 2 мес. назад | Торрент скачан:99 раз
Скачать  

28-07-2015 13:41 Гостья из будущего Скачать торрент  

Гостья из будущего
Страна: СССР / Студия Горького, Гостелерадио

Жанр: фантастика, триллер, драма, мелодрама, приключения, семейный
Год выпуска: 1984
Продолжительность: 01:03:30 / серия

Перевод: Не требуется
Cубтитры: русские от RUSCICO, русские от Твиттера, английские
Оригинальная аудиодорожка: русский

Режиссер: Павел Арсенов

В ролях: Наталья Гусева, Алексей Фомкин, Илья Наумов, Вячеслав Невинный, Михаил Кононов, Марьяна (Марианна) Ионесян, Елена Метелкина, Евгений Герасимов, Владимир Носик, Юрий Григорьев, Игорь Ясулович, Георгий Бурков, Валентина Талызина, Мария Стерникова, Людмила Аринина, Татьяна Божок, Екатерина Васильева, Антон Суховерко, Семён Бузган, Алексей Муравьёв, Екатерина Авербах, Елена Коляскина, Мария Баукина, Наталья Шанаева, Вячеслав Баранов, Наталья Варлей, Андрей Градов, Елена Цыплакова, Борис Щербаков, Рубен Симонов

Роли дублировали: Татьяна Дасковская, Михаил Кокшенов

Описание: 13 апреля 1984 года, в пятницу, ученик 6-го «Б» класса 20-й московской школы Коля Герасимов, отправившись после уроков в магазин за кефиром, встречает на оживлённой улице друга и одноклассника Фиму Королёва, который, в свою очередь, увлекает его слежкой за таинственной незнакомкой. Выслеживая её, ребята забираются в старый заброшенный двухэтажный дом, но незнакомки там не оказывается. В подвале, в потайной комнате, вход в которую замаскирован под обычный шкаф и закрыт подвижной кирпичной стеной, Коля обнаруживает машину времени. Борьба с космическими пиратами, захватывающее путешествие во времени, знакомство с роботом Вертером, говорящим козлом и девочкой из будущего Алисой Селезневой - вот к чему привел Колю обычный поход за кефиром. Фильм поставлен по мотивам фантастического романа Кира Булычева «Сто лет тому вперед».


Качество: DVDRip / 2 х DVD9 R5 - полная реставрация изображения и звука от RUSCICO.

Формат: AVI
Видео кодек: XviD
Аудио кодек: АС3
Видео: 720x544 (4:3), 25.000 fps, XviD ~ 1800 kbps avg, 0.184 bit/pixel
Аудио: 48 kHz, Dolby AC3, 6 ch, 448 kbps
Формат субтитров: SoftSub (srt)

О релизе: Я бы скорее всего не взялся за эту работу, если бы на дисках не было русских субтитров, я даже включил в раздачу двое русских субтитров, от RUSCICO и от Твиттера . Наши издатели фильмов практически никогда не думают о глухих людях, поэтому те и смотрят в основном не наши фильмы. В данном случае большой респект издателю!!!

Раздача от:
General
Format : AVI
Format/Info : Audio Video Interleave
File size : 1 022 MiB
Duration : 1h 3mn
Overall bit rate : 2 256 Kbps
Writing application : VirtualDubMod 1.5.10.3 | www.virtualdub-fr.org || (build 2550/release)
Writing library : VirtualDubMod build 2550/release

Video
ID : 0
Format : MPEG-4 Visual
Format profile : Advanced Simple@L5
Format settings, BVOP : 1
Format settings, QPel : No
Format settings, GMC : No warppoints
Format settings, Matrix : Custom
Codec ID : XVID
Codec ID/Hint : XviD
Duration : 1h 3mn
Bit rate : 1 798 Kbps
Width : 720 pixels
Height : 544 pixels
Display aspect ratio : 4:3
Frame rate : 25.000 fps
Color space : YUV
Chroma subsampling : 4:2:0
Bit depth : 8 bits
Scan type : Progressive
Compression mode : Lossy
Bits/(Pixel*Frame) : 0.184
Stream size : 815 MiB (80%)
Writing library : XviD 73

Audio
ID : 1
Format : AC-3
Format/Info : Audio Coding 3
Mode extension : CM (complete main)
Format settings, Endianness : Big
Codec ID : 2000
Duration : 1h 3mn
Bit rate mode : Constant
Bit rate : 448 Kbps
Channel(s) : 6 channels
Channel positions : Front: L C R, Side: L R, LFE
Sampling rate : 48.0 KHz
Bit depth : 16 bits
Compression mode : Lossy
Stream size : 203 MiB (20%)
Alignment : Split accross interleaves
Interleave, duration : 40 ms (1.00 video frame)
Interleave, preload duration : 500 ms
Видео: ссылка это сравнение первых серий релизов. Особенного отличия нет, просто картинка у меня помягче и кое-где почётче. Но в том релизе нет никаких субтитров!
pb.wtf



Скачать Гостья из будущего через торрент http://s018.radikal.ru/i500/1507/cf/61c3f2fa9cf3.jpg Скачать фильм Гостья из будущего через торрент бесплантно в хорошем качестве Описание: 13 апреля 1984 года, в пятницу, ученик 6-го «Б» класса 20-й московской школы Коля Герасимов, отправившись после уроков в магазин ... 9.9 10 29
Info! Золотая раздача, скачанное не засчитывается.
Торрент: Зарегистрирован [2015-07-28 13:41] · скачан: 99 раз
Статус: √ проверено
Размер: 5 GB
Как cкачать? Как скачать Гостья из будущего через торрент | qTorrent

% Раздел Тема Автор DL S | L
Наши сериалы [ 5 GB ] Гостья из будущего / Серии 1 - 5 из 5 [1984 СССР DVDRip-AVC by keeper.52] SUB keeper.52 Скачать
1 | 0


Последний раз редактировалось: keeper.52 (2015-07-30 09:54), всего редактировалось 2 раз(а)

28-11-2019 20:33  

Отключить всю рекламу на сайте

28-07-2015 14:23 Гостья из будущего Скачать торрент  

что за олень этому суперфильму 9 баллов поставил! капец!pb.wtf



28-07-2015 14:23 Гостья из будущего Скачать торрент  

вот бы в блюрей посмотреть 1080р !pb.wtf



02-08-2015 15:56 Гостья из будущего Скачать торрент  

Шедеврpb.wtf



02-04-2016 12:56 Гостья из будущего Скачать торрент  

классика советского киноpb.wtf



    Дорогой пользователь! Огромная просьба, поблагодарите релизера, оцените раздачу и оставьте свои комментарий, если Вы скачали Гостья из будущего через торрент бесплатно! Внесите свою лепту в развитие PiratBit!
    Комментировать посты могут только пользователи прошедшие не сложную регистрацию
    Показать сообщения:    

    Гостья из будущего через торрент
    Скачать бесплатно Гостья из будущего
    Гостья из будущего скачать торрент
    Гостья из будущего смотреть онлайн
    Cкачать фильм Гостья из будущего бесплатно
    Гостья из будущего скачать торрент в хорошем качестве
    Гостья из будущего смотреть онлайн бесплатно в хорошем качестве


    Вы не можете начинать темы
    Вы не можете отвечать на сообщения
    Вы не можете редактировать свои сообщения
    Вы не можете удалять свои сообщения
    Вы не можете голосовать в опросах
    Вы не можете прикреплять файлы к сообщениям
    Вы можете скачивать файлы