Наша группа ВК в очередной раз забанена мы уходим в Телеграм, присоединяйтесь!!!

Лицензия

30

iTunes

мы

iTunes

1

1 сезон

Чернобыль

iTunes

1+1

iTunes

Закатать в асфальт

8 сезон

Игра престолов

1 сезон

Ральф против интернета

ИГРА 18+

pack

ВАЖНО

!!Акция!!

Alien_RageХит недели

RePack

Resident Evil 21
pack

RePack

Metro:Exodus

!!Акция!!

Alien_Rage

RePack

fifa19

RePack

Assassins Creed: Odyssey

RePack

NEED FOR SPEED™ PAYBACK

3 сезон

9 сезон

Бесстыжие 9 сезон

Все сериалы

все сериалы на PB.wtf

RePack

FAR CRY 5
Ребята, катастрофически не хватает 2730р. для оплаты серверов за АПРЕЛЬ (всвязи с блокировками трафик упал в 3 раза), 1-2р., выручайте.
  

Чингачгук - Большой Змей / Chingachgook, die grosse Schlange (Рихард Грошопп) [1967, драма, мелодрама, приключения, вестерн, DVDRip, DUB] pb.wtf

Чингачгук - Большой Змей через торрент pb.wtf

Размер: 1.46 GB | Добавлен: 3 года 9 мес. назад | Торрент скачан:49 раз
Скачать  

28-07-2015 20:31 Чингачгук - Большой Змей Скачать торрент  

Чингачгук - Большой Змей / Chingachgook, die grosse Schlange

Год выпуска: 1967
Страна: Германия (ГДР)
Жанр: драма, мелодрама, приключения, вестерн
Продолжительность: 01:23:14
Перевод: Профессиональный (дублированный)

Режиссер: Рихард Грошопп / Richard Groschopp

В ролях: Гойко Митич, Рольф Рёмер, Хельмут Шрайбер, Юрген Фрорип, Лило Гран, Андреа Драхота, Йоханнес Книттель, Адольф Петер Хоффманн, Хайнц Клевенов мл., Милан Яблонски, Хорст Пройскер

Описание: 1740 год. Английские войска пытаются отбить у французов их североамериканские колонии и втягивают в эту войну индейцев. В руки гуронов, которых французы натравили на делаваров, попадает Ватава, дочь вождя, обещанная Чингачгуку. Он собирается освободить ее с помощью своего друга Зверобоя. Неподалеку от лагеря гуронов они сталкиваются с охотниками за скальпами. Чингачгук попадает в плен к гуронам. Он пытается убедить их, что индейцам нет дела до войны между белыми. Но это ему не удается. Между тем один из охотников приводит английских солдат, которые наголову разбивают гуронов. Теперь их тяжело раненный вождь понимает, что Чингачгук был прав. Сумеют ли Чингачгук, Ватава и Зверобой выжить в этой резне?..



Качество: DVDRip [DVD5]
Формат: AVI
Видео кодек: XviD
Аудио кодек: AC3
Видео: 720x416 (1.73:1), 25 fps, XviD build 73 ~2302 kbps avg, 0.31 bit/pixel
Аудио: 48 kHz, AC3 Dolby Digital, 2/0 (L,R) ch, ~192 kbps
Раздача от:
D:Мои рипыChingachguk.Bolshoi.Zmei.1967.dvdrip.dexter_lex.avi

General

Complete name : D:Мои рипыChingachguk.Bolshoi.Zmei.1967.dvdrip.dexter_lex.avi

Format : AVI

Format/Info : Audio Video Interleave

File size : 1.46 GiB

Duration : 1h 23mn

Overall bit rate : 2 504 Kbps

Writing application : VirtualDubMod 1.5.10.3 | www.virtualdub-fr.org || (build 2550/release)

Writing library : VirtualDubMod build 2550/release

Video #0

ID : 0

Format : MPEG-4 Visual

Format profile : Advanced Simple@L5

Format settings, BVOP : 1

Format settings, QPel : No

Format settings, GMC : No warppoints

Format settings, Matrix : Default (H.263)

Codec ID : XVID

Codec ID/Hint : XviD

Duration : 1h 23mn

Bit rate : 2 303 Kbps

Width : 720 pixels

Height : 416 pixels

Display aspect ratio : 16:9

Frame rate : 25.000 fps

Color space : YUV

Chroma subsampling : 4:2:0

Bit depth : 8 bits

Scan type : Progressive

Compression mode : Lossy

Bits/(Pixel*Frame) : 0.308

Stream size : 1.34 GiB (92%)

Writing library : XviD 73

Audio #1

ID : 1

Format : AC-3

Format/Info : Audio Coding 3

Mode extension : CM (complete main)

Codec ID : 2000

Duration : 1h 23mn

Bit rate mode : Constant

Bit rate : 192 Kbps

Channel(s) : 2 channels

Channel positions : Front: L R

Sampling rate : 48.0 KHz

Bit depth : 16 bits

Compression mode : Lossy

Stream size : 114 MiB (8%)

Alignment : Split accross interleaves

Interleave, duration : 40 ms (1.00 video frame)

Interleave, preload duration : 500 ms
pb.wtf



Скачать Чингачгук - Большой Змей через торрент http://i64.fastpic.ru/big/2015/0128/81/495b63a5a0ff5d7d21fffe1d3ab11a81.jpg Скачать фильм Чингачгук - Большой Змей через торрент бесплантно в хорошем качестве Описание: 1740 год. Английские войска пытаются отбить у французов их североамериканские колонии и втягивают в эту войну индейцев. В руки ... 10 10 8
Info! Золотая раздача, скачанное не засчитывается.
Торрент: Зарегистрирован [2015-07-28 20:31] · скачан: 49 раз
Статус: √ проверено
Размер: 1.46 GB
Как cкачать? Как скачать Чингачгук - Большой Змей через торрент | qTorrent

% Раздел Тема Автор DL S | L
Классика зарубежного кино [ 1.46 GB ] Чингачгук - Большой Змей / Chingachgook die grosse Schlange [1967 BDRip] [] Twi7ter Скачать
1 | 0


>> Регистрируемся здесь <<






Отзывы и комментарии о схеме читаем и пишем здесь: ---> Отзывы и комментарии о схеме

Новые благодарочки в телеграм довольных пользователей:
скриншот   скриншот   скриншот   скриншот   скриншот
    Дорогой пользователь! Огромная просьба, поблагодарите релизера, оцените раздачу и оставьте свои комментарий, если Вы скачали Чингачгук - Большой Змей через торрент бесплатно! Внесите свою лепту в развитие PiratBit!
    Комментировать посты могут только пользователи прошедшие не сложную регистрацию
    Показать сообщения:    

    Чингачгук - Большой Змей через торрент
    Скачать бесплатно Чингачгук - Большой Змей
    Чингачгук - Большой Змей скачать торрент
    Чингачгук - Большой Змей смотреть онлайн
    Cкачать фильм Чингачгук - Большой Змей бесплатно
    Чингачгук - Большой Змей скачать торрент в хорошем качестве
    Чингачгук - Большой Змей смотреть онлайн бесплатно в хорошем качестве


    Вы не можете начинать темы
    Вы не можете отвечать на сообщения
    Вы не можете редактировать свои сообщения
    Вы не можете удалять свои сообщения
    Вы не можете голосовать в опросах
    Вы не можете прикреплять файлы к сообщениям
    Вы можете скачивать файлы