Ссылка на приватное зеркало нашего сайта всего за 1$. Внимание количество ограничено!!!

2 сезон

iTunes

1 сезон

1

iTunes

iTunes

iTunes

1 сезон

RePack

30

ИГРА 18+

pack

ВАЖНО

!!Акция!!

Alien_RageХит недели

RePack

MK11
pack

Забери бонус

RePack

jed

!!Акция!!

Alien_Rage

RePack

fifa19

RePack

Assassins Creed: Odyssey

RePack

NEED FOR SPEED™ PAYBACK

4 сезон

9 сезон

Бесстыжие 9 сезон

Все сериалы

все сериалы на PB.wtf

RePack

FAR CRY 5
  

Вдали от обезумевшей толпы / Far from the Madding Crowd (Томас Винтерберг / Thomas Vinterberg) [2015, Великобритания, США, драма, мелодрама, BDRip 1080p, Дубляж] iTunes + ENG pb.wtf

Вдали от обезумевшей толпы через торрент pb.wtf

Размер: 9.05 GB | Добавлен: 5 лет 2 мес. назад | Торрент скачан:128 раз
Скачать  

30-07-2015 02:37 Вдали от обезумевшей толпы Скачать торрент  

Вдали от обезумевшей толпы / Far from the Madding Crowd


  • Год выпуска: 2015
  • Страна: Великобритания, США
  • Жанр: драма, мелодрама
  • Продолжительность: 01:58:54
  • Перевод: Дубляж - [Лицензия / iTunes]

  • Режиссер: Томас Винтерберг / Thomas Vinterberg
  • В ролях:

    Кэри Маллиган (Bathsheba Everdene), Маттиас Шонартс (Gabriel Oak), Майкл Шин (William Boldwood), Джуно Темпл (Fanny Robbin), Том Стёрридж (Sergeant Francis Troy), Тилли Восберг (Mrs. Hurst), Марк Уингетт (Bailiff #1), Дориан Лок (Bailiff #2), Сэм Филлипс (Sergeant Doggett), Брэдли Холл (Joseph Poorgrass), Хилтон МакРэй (Jacob Smallbury), Джессика Барден (Liddy)

  • Описание:
    Унаследовав от дядюшки богатую ферму, юная Батшеба Эвердин энергично берется за дело, набрав себе рабочих. Берет она и разорившегося фермера Габриэля Оука - человека опытного и честного. Габриэль в свое время просил её руки, но потерпел неудачу. Теперь ей предлагает руку и сердце сосед, зажиточный фермер Уильям Болдвуд, но своенравная Батшеба пока не соглашается стать женой, попросив себе время на раздумья. Встреча с самовлюбленным красавцем сержантом Фрэнком Троем становится роковой для Батшебы...
  • Рейтинг:



  • Качество: BDRip 1080p
  • Формат: :MKV
  • Видео кодек: AVC
  • Аудио кодек: AC3, DTS
  • Видео: 1920x800 (2.40:1), 9019 kbps, 23,976 fps, 0,245 bpp
  • Аудио №1: русский / 5.1 / 48 kHz / 384 kbps / 16 bit ||
  • Аудио №2: английский / 5.1 / 48 kHz / 1510 kbps / 24 bit
  • Релиз от: GEKADOL

    Код:

    General
    Unique ID                                : 248612618390447602289756926757270129247 (0xBB090C7315EE8F97ACF34B99A3370A5F)
    Complete name                            : F:\8dali.Ot.0bezumevshei.To1pi.2015.D.BDRip.1080p.mkv
    Format                                   : Matroska
    Format version                           : Version 4 / Version 2
    File size                                : 9.05 GiB
    Duration                                 : 1h 58mn
    Overall bit rate                         : 10.9 Mbps
    Encoded date                             : UTC 2015-07-29 18:14:21
    Writing application                      : mkvmerge v6.9.1 ('Blue Panther') 64bit built on Apr 18 2014 18:23:38
    Writing library                          : libebml v1.3.0 + libmatroska v1.4.1

    Video
    ID                                       : 1
    Format                                   : AVC
    Format/Info                              : Advanced Video Codec
    Format profile                           : High@L4.1
    Format settings, CABAC                   : Yes
    Format settings, ReFrames                : 5 frames
    Codec ID                                 : V_MPEG4/ISO/AVC
    Duration                                 : 1h 58mn
    Bit rate                                 : 9 019 Kbps
    Width                                    : 1 920 pixels
    Height                                   : 800 pixels
    Display aspect ratio                     : 2.40:1
    Frame rate                               : 23.976 fps
    Color space                              : YUV
    Chroma subsampling                       : 4:2:0
    Bit depth                                : 8 bits
    Scan type                                : Progressive
    Bits/(Pixel*Frame)                       : 0.245
    Stream size                              : 7.30 GiB (81%)
    Writing library                          : x264 core 146 r2538 121396c
    Encoding settings                        : cabac=1 / ref=5 / deblock=1:0:0 / analyse=0x3:0x133 / me=umh / subme=7 / psy=1 / psy_rd=1.00:0.00 / mixed_ref=1 / me_range=16 / chroma_me=1 / trellis=1 / 8x8dct=1 / cqm=0 / deadzone=21,11 / fast_pskip=0 / chroma_qp_offset=-2 / threads=60 / lookahead_threads=6 / sliced_threads=0 / nr=0 / decimate=1 / interlaced=0 / bluray_compat=0 / constrained_intra=0 / bframes=3 / b_pyramid=2 / b_adapt=1 / b_bias=0 / direct=1 / weightb=1 / open_gop=0 / weightp=2 / keyint=250 / keyint_min=23 / scenecut=40 / intra_refresh=0 / rc_lookahead=40 / rc=2pass / mbtree=1 / bitrate=9019 / ratetol=1.0 / qcomp=0.60 / qpmin=0 / qpmax=69 / qpstep=4 / cplxblur=20.0 / qblur=0.5 / ip_ratio=1.40 / aq=1:1.00
    Language                                 : English
    Default                                  : Yes
    Forced                                   : No

    Audio #1
    ID                                       : 2
    Format                                   : AC-3
    Format/Info                              : Audio Coding 3
    Mode extension                           : CM (complete main)
    Codec ID                                 : A_AC3
    Duration                                 : 1h 58mn
    Bit rate mode                            : Constant
    Bit rate                                 : 384 Kbps
    Channel(s)                               : 6 channels
    Channel positions                        : Front: L C R, Side: L R, LFE
    Sampling rate                            : 48.0 KHz
    Bit depth                                : 16 bits
    Compression mode                         : Lossy
    Stream size                              : 327 MiB (4%)
    Language                                 : Russian
    Default                                  : Yes
    Forced                                   : No

    Audio #2
    ID                                       : 3
    Format                                   : DTS
    Format/Info                              : Digital Theater Systems
    Codec ID                                 : A_DTS
    Duration                                 : 1h 58mn
    Bit rate mode                            : Constant
    Bit rate                                 : 1 510 Kbps
    Channel(s)                               : 6 channels
    Channel positions                        : Front: L C R, Side: L R, LFE
    Sampling rate                            : 48.0 KHz
    Bit depth                                : 24 bits
    Compression mode                         : Lossy
    Stream size                              : 1.25 GiB (14%)
    Language                                 : English
    Default                                  : No
    Forced                                   : No

    Menu
    00:00:00.000                             : en:00:00:00.000
    00:06:08.618                             : en:00:06:08.618
    00:10:01.851                             : en:00:10:01.851
    00:13:12.083                             : en:00:13:12.083
    00:16:06.591                             : en:00:16:06.591
    00:19:50.147                             : en:00:19:50.147
    00:23:30.075                             : en:00:23:30.075
    00:27:45.664                             : en:00:27:45.664
    00:30:40.881                             : en:00:30:40.881
    00:33:28.173                             : en:00:33:28.173
    00:35:57.781                             : en:00:35:57.781
    00:39:30.118                             : en:00:39:30.118
    00:42:40.057                             : en:00:42:40.057
    00:47:30.973                             : en:00:47:30.973
    00:53:38.590                             : en:00:53:38.590
    00:56:24.673                             : en:00:56:24.673
    01:02:28.662                             : en:01:02:28.662
    01:05:14.786                             : en:01:05:14.786
    01:08:40.325                             : en:01:08:40.325
    01:10:45.658                             : en:01:10:45.658
    01:13:28.821                             : en:01:13:28.821
    01:16:29.752                             : en:01:16:29.752
    01:19:51.161                             : en:01:19:51.161
    01:22:50.591                             : en:01:22:50.591
    01:25:57.819                             : en:01:25:57.819
    01:28:23.965                             : en:01:28:23.965
    01:33:55.255                             : en:01:33:55.255
    01:38:47.130                             : en:01:38:47.130
    01:42:06.954                             : en:01:42:06.954
    01:45:17.311                             : en:01:45:17.311
    01:49:07.416                             : en:01:49:07.416
    01:55:38.557                             : en:01:55:38.557




    Скриншоты:


    pb.wtf



  • Скачать Вдали от обезумевшей толпы через торрент http://i2.imageban.ru/out/2015/07/30/1b7a9d23abf5536725bc868dd2a27c76.jpg Скачать фильм Вдали от обезумевшей толпы через торрент бесплантно в хорошем качестве Описание: Унаследовав от дядюшки богатую ферму, юная Батшеба Эвердин энергично берется за дело, набрав себе рабочих. Берет она и ... 9.9 10 7
    Торрент: Зарегистрирован [2015-07-30 02:37] · скачан: 128 раз
    Статус: T временная
    Размер: 9.05 GB
    Как cкачать? Как скачать Вдали от обезумевшей толпы через торрент | qTorrent

    % Раздел Тема Автор DL S | L
    T Фильмы [HD 720p, 1080p] (Хороший звук DUB, MVO) [ 5.78 GB ] Вдали от обезумевшей толпы / Far from the Madding Crowd [2015 BDRip 720p ] + ENG GEKADOL Скачать
    1 | 0

    28-11-2019 20:33  

    Отключить всю рекламу на сайте

      Дорогой пользователь! Огромная просьба, поблагодарите релизера, оцените раздачу и оставьте свои комментарий, если Вы скачали Вдали от обезумевшей толпы через торрент бесплатно! Внесите свою лепту в развитие PiratBit!
      Комментировать посты могут только пользователи прошедшие не сложную регистрацию
      Показать сообщения:    

      Вдали от обезумевшей толпы через торрент
      Скачать бесплатно Вдали от обезумевшей толпы
      Вдали от обезумевшей толпы скачать торрент
      Вдали от обезумевшей толпы смотреть онлайн
      Cкачать фильм Вдали от обезумевшей толпы бесплатно
      Вдали от обезумевшей толпы скачать торрент в хорошем качестве
      Вдали от обезумевшей толпы смотреть онлайн бесплатно в хорошем качестве


      Вы не можете начинать темы
      Вы не можете отвечать на сообщения
      Вы не можете редактировать свои сообщения
      Вы не можете удалять свои сообщения
      Вы не можете голосовать в опросах
      Вы не можете прикреплять файлы к сообщениям
      Вы можете скачивать файлы