2 сезон

iTunes

1 сезон

1

iTunes

iTunes

iTunes

1 сезон

RePack

30

ИГРА 18+

pack

ВАЖНО

!!Акция!!

Alien_RageХит недели

RePack

MK11
pack

Забери бонус

RePack

jed

!!Акция!!

Alien_Rage

RePack

fifa19

RePack

Assassins Creed: Odyssey

RePack

NEED FOR SPEED™ PAYBACK

4 сезон

9 сезон

Бесстыжие 9 сезон

Все сериалы

все сериалы на PB.wtf

RePack

FAR CRY 5
  

Тьма была ночью / Dark Was the Night (Джек Хеллер / Jack Heller) [2014, США, ужасы, триллер, драма, WEB-DLRip, Любительский (двухголосый) [datynet & Galina Vasyukova] pb.wtf

Тьма была ночью через торрент pb.wtf

Размер: 1.36 GB | Добавлен: 5 лет 3 мес. назад | Торрент скачан:197 раз
Скачать  

30-07-2015 05:31 Тьма была ночью Скачать торрент  

Тьма была ночью / Dark Was the Night


  • Год выпуска: 2014
  • Страна: США
  • Жанр: ужасы, триллер, драма
  • Продолжительность: 01:38:32
  • Перевод: Любительский (двухголосый) [datynet & Galina Vasyukova]

  • Режиссер: Джек Хеллер / Jack Heller
  • В ролях:

    Кевин Дюран (Paul Shields), Лукас Хаас (Donny Saunders), Стив Эйджи (Jesse), Ник Дамичи, Хит Фриман, Сабина Гадеки, Сет Хендрикс (Worker), Бьянка Кэйлик (Susan Shields), Ethan Khusidman (Adam Shields), Джозеф Паллистер (Hunter), Чарльз Пэршли (Hunter #2), Билли Патерсон (Ron)

  • Описание:
    Вырубка леса в захолустном местечке Мейден-Вудс приводит к нарушению природного баланса и пробуждению древнего зла. В схватку за жизни местных жителей вступают отважный шериф и его верный помощник.
  • Рейтинг:



  • Качество: WEB-DLRip
  • Формат: :AVI
  • Видео кодек: XviD
  • Аудио кодек: AC3
  • Видео: 720x304 (2.35:1), 1507 kbps, 23,976 fps, 0,287 bpp
  • Аудио: 5.1 / 48 kHz / 384 kbps / 16 bit
  • Релиз от: GEKADOL

    Код:

    General
    Complete name                            : D:\Фильмы\Dark.Was.the.Night.2014.WEB-DLRip.avi
    Format                                   : AVI
    Format/Info                              : Audio Video Interleave
    File size                                : 1.36 GiB
    Duration                                 : 1h 38mn
    Overall bit rate                         : 1 979 Kbps
    Writing application                      : VirtualDubMod 1.5.10.3 | www.virtualdub-fr.org || (build 2550/release)
    Writing library                          : VirtualDubMod build 2550/release

    Video
    ID                                       : 0
    Format                                   : MPEG-4 Visual
    Format profile                           : Advanced Simple@L5
    Format settings, BVOP                    : 2
    Format settings, QPel                    : No
    Format settings, GMC                     : No warppoints
    Format settings, Matrix                  : Default (H.263)
    Muxing mode                              : Packed bitstream
    Codec ID                                 : XVID
    Codec ID/Hint                            : XviD
    Duration                                 : 1h 38mn
    Bit rate                                 : 1 507 Kbps
    Width                                    : 720 pixels
    Height                                   : 304 pixels
    Display aspect ratio                     : 2.35:1
    Frame rate                               : 23.976 fps
    Color space                              : YUV
    Chroma subsampling                       : 4:2:0
    Bit depth                                : 8 bits
    Scan type                                : Progressive
    Compression mode                         : Lossy
    Bits/(Pixel*Frame)                       : 0.287
    Stream size                              : 1.04 GiB (76%)
    Writing library                          : XviD 66

    Audio
    ID                                       : 1
    Format                                   : AC-3
    Format/Info                              : Audio Coding 3
    Mode extension                           : CM (complete main)
    Codec ID                                 : 2000
    Duration                                 : 1h 38mn
    Bit rate mode                            : Constant
    Bit rate                                 : 384 Kbps
    Channel(s)                               : 6 channels
    Channel positions                        : Front: L C R, Side: L R, LFE
    Sampling rate                            : 48.0 KHz
    Bit depth                                : 16 bits
    Compression mode                         : Lossy
    Stream size                              : 271 MiB (19%)
    Alignment                                : Split accross interleaves




    Скриншоты:


    pb.wtf



  • Скачать Тьма была ночью через торрент http://i1.imageban.ru/out/2015/07/30/428b2e4ba8acb7ebcb365434c291c5d4.jpg Скачать фильм Тьма была ночью через торрент бесплантно в хорошем качестве Описание: Вырубка леса в захолустном местечке Мейден-Вудс приводит к нарушению природного баланса и пробуждению древнего зла. В схватку за ... 7.8 10 8
    Торрент: Зарегистрирован [2015-07-30 05:31] · скачан: 197 раз
    Статус: √ проверено
    Размер: 1.36 GB
    Как cкачать? Как скачать Тьма была ночью через торрент | qTorrent

    % Раздел Тема Автор DL S | L
    Фильмы (WEB-DL 720p, 1080p) [ 3.25 GB ] Тьма была ночью / Dark Was the Night [2014 WEB-DL 720p Любительский [datynet & Galina Vasyukova] + ENG GEKADOL Скачать
    1 | 0

    28-11-2019 20:33  

    Отключить всю рекламу на сайте

    31-07-2015 18:25 Тьма была ночью Скачать торрент  

    жуть какая)pb.wtf



    31-07-2015 18:58 Тьма была ночью Скачать торрент  

    тьма была ночью!!!!!!! а рассвет был утром =) =) =)pb.wtf



      Дорогой пользователь! Огромная просьба, поблагодарите релизера, оцените раздачу и оставьте свои комментарий, если Вы скачали Тьма была ночью через торрент бесплатно! Внесите свою лепту в развитие PiratBit!
      Комментировать посты могут только пользователи прошедшие не сложную регистрацию
      Показать сообщения:    

      Тьма была ночью через торрент
      Скачать бесплатно Тьма была ночью
      Тьма была ночью скачать торрент
      Тьма была ночью смотреть онлайн
      Cкачать фильм Тьма была ночью бесплатно
      Тьма была ночью скачать торрент в хорошем качестве
      Тьма была ночью смотреть онлайн бесплатно в хорошем качестве


      Вы не можете начинать темы
      Вы не можете отвечать на сообщения
      Вы не можете редактировать свои сообщения
      Вы не можете удалять свои сообщения
      Вы не можете голосовать в опросах
      Вы не можете прикреплять файлы к сообщениям
      Вы можете скачивать файлы