Ссылка на приватное зеркало нашего сайта всего за 1$. Внимание количество ограничено!!!

2 сезон

iTunes

1 сезон

1

2 сезон

2 сезон

iTunes

1 сезон

RePack

30

Ultimate

ВАЖНО

ИГРА 18+

pack

RePack

MK11
pack

Забери бонус

RePack

jed

!!Акция!!

Alien_Rage

RePack

fifa19

RePack

Assassins Creed: Odyssey

RePack

NEED FOR SPEED™ PAYBACK

4 сезон

9 сезон

Бесстыжие 9 сезон

Все сериалы

все сериалы на PB.wtf

RePack

FAR CRY 5
  

Сапожник / The Cobbler (Томас МакКарти) [2014, фэнтези, драма, комедия, Blu-Ray Remux 1080p] [DUB] [Лицензия / iTunes] + [DUB] + [MVO] + 2x[DVO] pb.wtf

Сапожник через торрент pb.wtf

Размер: 16.95 GB | Добавлен: 5 лет 3 мес. назад | Торрент скачан:113 раз
Скачать  

30-07-2015 06:37 Сапожник Скачать торрент  

Сапожник / The Cobbler Год выпуска: 2014
Выпущено: США
Жанр: фэнтези, драма, комедия
Продолжительность: 01:38:02
Перевод #1: Дублированный [Лицензия / iTunes]
Перевод #2: Дублированный [TNT]
Перевод #3: Любительский (многоголосный) [Renegade Team]
Перевод #4: Любительский (двухголосный) [Студия Пиратского Дубляжа]
Перевод #5: Любительский (двухголосный) [Sunny-Films]
Субтитры: Русские, английские

Режиссер: Томас МакКарти

В ролях: Адам Сэндлер, Дэн Стивенс, Стив Бушеми, Дастин Хоффман, Эллен Баркин, Елена Кампурис, Гленн Флешлер, Метод Мэн, Мелони Диас,
Джаред Сэндлер


Макс Симкин занимается ремонтом обуви в Нью-Йорке. Он работает в магазине, который передавался его семьей из поколения в поколение. Однажды, разочарованный своей скучной жизнью, Макс натыкается на волшебную реликвию, которая позволяет ему увидеть мир по-новому.

СЭМПЛ

Качество: Blu-Ray Remux [1080p]
Формат: MKV
Видео кодек: AVC
Аудио кодек: AC3, DTS
Видео: MPEG-4 AVC, 19996 Кбит/с, 1920x1080, 23.976 кадр/с, 23.976 fps
Аудио №1: 48 kHz, AC3, 6 ch, ~192 kbps, CBR | DUB (iTunes)
Аудио №2: 48 kHz, AC3, 2 ch, ~192 kbps, CBR | DUB (TNT)
Аудио №3: 48 kHz, AC3, 6 ch, ~448 kbps, CBR | MVO (Renegade Team)
Аудио №4: 48 kHz, AC3, 6 ch, ~384 kbps, CBR | DVO (Студия Пиратского Дубляжа)
Аудио №5: 48 kHz, AC3, 2 ch, ~192 kbps, CBR | DVO (Sunny-Films)
Аудио №6: (DTS-HD MA, 6 ch, 3246 Кбит/с) | Английский

Код:

Общее
Уникальный идентификатор                 : 228283945972513575622684163408155368147 (0xABBDE38446DE0DF49942F6632EC3DAD3)
Полное имя                               : C:\The.Cobbler.2014.BDremux.1080p.mkv
Формат                                   : Matroska
Версия формата                           : Version 2
Размер файла                             : 16,9 Гбайт
Продолжительность                        : 1 ч. 38 м.
Режим общего битрейта                    : Переменный
Общий поток                              : 24,7 Мбит/сек
Дата кодирования                         : UTC 2015-07-30 05:11:29
Программа кодирования                    : mkvmerge v7.9.0 ('Birds') 64bit
Библиотека кодирования                   : libebml v1.3.1 + libmatroska v1.4.2

Видео
Идентификатор                            : 1
Формат                                   : AVC
Формат/Информация                        : Advanced Video Codec
Профиль формата                          : High@L4.1
Параметр CABAC формата                   : Да
Параметр ReFrames формата                : 4 кадра
Идентификатор кодека                     : V_MPEG4/ISO/AVC
Продолжительность                        : 1 ч. 38 м.
Вид битрейта                             : Переменный
Максимальный битрейт                     : 37,0 Мбит/сек
Ширина                                   : 1920 пикселей
Высота                                   : 1080 пикселей
Соотношение сторон                       : 16:9
Режим частоты кадров                     : Постоянный
Частота кадров                           : 23,976 кадра/сек
Цветовое пространство                    : YUV
Субдискретизация насыщенности            : 4:2:0
Битовая глубина                          : 8 бит
Тип развёртки                            : Прогрессивная
Язык                                     : English
Default                                  : Да
Forced                                   : Нет

Аудио #1
Идентификатор                            : 2
Формат                                   : AC-3
Формат/Информация                        : Audio Coding 3
Расширение режима                        : CM (complete main)
Параметр Endianness формата              : Big
Идентификатор кодека                     : A_AC3
Продолжительность                        : 1 ч. 38 м.
Вид битрейта                             : Постоянный
Битрейт                                  : 384 Кбит/сек
Каналы                                   : 6 каналов
Расположение каналов                     : Front: L C R, Side: L R, LFE
Частота                                  : 48,0 КГц
Метод сжатия                             : С потерями
Размер потока                            : 269 Мбайт (2%)
Заголовок                                : iTunes
Язык                                     : Russian
Default                                  : Да
Forced                                   : Нет

Аудио #2
Идентификатор                            : 3
Формат                                   : AC-3
Формат/Информация                        : Audio Coding 3
Расширение режима                        : CM (complete main)
Параметр Endianness формата              : Big
Идентификатор кодека                     : A_AC3
Продолжительность                        : 1 ч. 38 м.
Вид битрейта                             : Постоянный
Битрейт                                  : 192 Кбит/сек
Каналы                                   : 2 канала
Расположение каналов                     : Front: L R
Частота                                  : 48,0 КГц
Метод сжатия                             : С потерями
Размер потока                            : 135 Мбайт (1%)
Заголовок                                : Dub (ТНТ)
Язык                                     : Russian
Default                                  : Нет
Forced                                   : Нет

Аудио #3
Идентификатор                            : 4
Формат                                   : AC-3
Формат/Информация                        : Audio Coding 3
Расширение режима                        : CM (complete main)
Параметр Endianness формата              : Big
Идентификатор кодека                     : A_AC3
Продолжительность                        : 1 ч. 38 м.
Вид битрейта                             : Постоянный
Битрейт                                  : 448 Кбит/сек
Каналы                                   : 6 каналов
Расположение каналов                     : Front: L C R, Side: L R, LFE
Частота                                  : 48,0 КГц
Метод сжатия                             : С потерями
Размер потока                            : 314 Мбайт (2%)
Заголовок                                : MVO  (Renegade Team)
Язык                                     : Russian
Default                                  : Нет
Forced                                   : Нет

Аудио #4
Идентификатор                            : 5
Формат                                   : AC-3
Формат/Информация                        : Audio Coding 3
Расширение режима                        : CM (complete main)
Параметр Endianness формата              : Big
Идентификатор кодека                     : A_AC3
Продолжительность                        : 1 ч. 38 м.
Вид битрейта                             : Постоянный
Битрейт                                  : 384 Кбит/сек
Каналы                                   : 2 канала
Расположение каналов                     : Front: L R
Частота                                  : 48,0 КГц
Метод сжатия                             : С потерями
Размер потока                            : 269 Мбайт (2%)
Заголовок                                : DVO  (Пиратского Дубляжа)
Язык                                     : Russian
Default                                  : Нет
Forced                                   : Нет

Аудио #5
Идентификатор                            : 6
Формат                                   : AC-3
Формат/Информация                        : Audio Coding 3
Расширение режима                        : CM (complete main)
Параметр Endianness формата              : Big
Идентификатор кодека                     : A_AC3
Продолжительность                        : 1 ч. 38 м.
Вид битрейта                             : Постоянный
Битрейт                                  : 192 Кбит/сек
Каналы                                   : 2 канала
Расположение каналов                     : Front: L R
Частота                                  : 48,0 КГц
Метод сжатия                             : С потерями
Размер потока                            : 135 Мбайт (1%)
Заголовок                                : DVO  (Sunny-Films)
Язык                                     : Russian
Default                                  : Нет
Forced                                   : Нет

Аудио #6
Идентификатор                            : 7
Формат                                   : DTS
Формат/Информация                        : Digital Theater Systems
Профиль формата                          : MA / Core
Режим                                    : 16
Параметр Endianness формата              : Big
Идентификатор кодека                     : A_DTS
Продолжительность                        : 1 ч. 38 м.
Вид битрейта                             : Переменный
Битрейт                                  : Неизвестно / 1509 Кбит/сек
Каналы                                   : 6 каналов
Расположение каналов                     : Front: L C R, Side: L R, LFE
Частота                                  : 48,0 КГц
Битовая глубина                          : 24 бит
Метод сжатия                             : Без потерь / Lossy
Язык                                     : English
Default                                  : Нет
Forced                                   : Нет

Текст #1
Идентификатор                            : 8
Формат                                   : UTF-8
Идентификатор кодека                     : S_TEXT/UTF8
Идентификатор кодека/Информация          : UTF-8 Plain Text
Заголовок                                : Full | killer777max
Язык                                     : Russian
Default                                  : Нет
Forced                                   : Нет

Текст #2
Идентификатор                            : 9
Формат                                   : UTF-8
Идентификатор кодека                     : S_TEXT/UTF8
Идентификатор кодека/Информация          : UTF-8 Plain Text
Заголовок                                : Full
Язык                                     : English
Default                                  : Нет
Forced                                   : Нет

Меню
00:00:00.000                             : en:00:00:00.000
00:08:30.301                             : en:00:08:30.301
00:16:07.049                             : en:00:16:07.049
00:23:33.954                             : en:00:23:33.954
00:39:04.592                             : en:00:39:04.592
00:46:01.968                             : en:00:46:01.968
00:51:59.700                             : en:00:51:59.700
01:00:35.757                             : en:01:00:35.757
01:08:49.042                             : en:01:08:49.042
01:15:42.288                             : en:01:15:42.288
01:26:43.698                             : en:01:26:43.698
01:33:17.425                             : en:01:33:17.425

pb.wtf



Скачать Сапожник через торрент http://i57.fastpic.ru/big/2015/0313/ee/9634e343f29f1c2bc85a5d64a08caeee.jpg Скачать фильм Сапожник через торрент бесплантно в хорошем качестве В ролях: Адам Сэндлер, Дэн Стивенс, Стив Бушеми, Дастин Хоффман, Эллен Баркин, Елена Кампурис, Гленн Флешлер, Метод Мэн, Мелони Диас,Джаред ... 10 10 5
Info! Золотая раздача, скачанное не засчитывается.
Торрент: Зарегистрирован [2015-07-30 06:37] · скачан: 113 раз
Статус: √ проверено
Размер: 16.95 GB
Как cкачать? Как скачать Сапожник через торрент | qTorrent

% Раздел Тема Автор DL S | L
Фильмы с украинским озвучиванием [ 1.45 GB ] Сапожник / Чоботар / The Cobbler [2014 BDRip] [Ukr MVO] killermax2013 Скачать
1 | 0
Фильмы 2014 [DVDrip, WEB-DLRip, HDrip] [ 708 MB ] Сапожник / The Cobbler [2014 HDRip ""] coc900 Скачать
1 | 0
Фильмы (DVD фильмы) [ 5.42 GB ] Сапожник / The Cobbler [2014 DVD9] R5 voovaz Скачать
1 | 0
Фильмы 2014 [DVDrip, WEB-DLRip, HDrip] [ 2.14 GB ] Сапожник / The Cobbler [2014 BDRip-AVC] Dub potroks Скачать
1 | 0
Фильмы 2014 [DVDrip, WEB-DLRip, HDrip] [ 1.41 GB ] Сапожник / The Cobbler [2014 BDRip-AVC от Leonardo / ] Ворон Скачать
1 | 0
Фильмы [HD 720p, 1080p] (Хороший звук DUB, MVO) [ 9.9 GB ] Сапожник / The Cobbler [2014 BDRip 1080p] DUB - / Newton5 Скачать
1 | 0
Фильмы 2014 [DVDrip, WEB-DLRip, HDrip] [ 1.46 GB ] Сапожник / The Cobbler [2014 HDRip ] [Т/Н/Т] -Lexx- Скачать
1 | 0

28-11-2019 20:33  

Отключить всю рекламу на сайте

    Дорогой пользователь! Огромная просьба, поблагодарите релизера, оцените раздачу и оставьте свои комментарий, если Вы скачали Сапожник через торрент бесплатно! Внесите свою лепту в развитие PiratBit!
    Комментировать посты могут только пользователи прошедшие не сложную регистрацию
    Показать сообщения:    

    Сапожник через торрент
    Скачать бесплатно Сапожник
    Сапожник скачать торрент
    Сапожник смотреть онлайн
    Cкачать фильм Сапожник бесплатно
    Сапожник скачать торрент в хорошем качестве
    Сапожник смотреть онлайн бесплатно в хорошем качестве


    Вы не можете начинать темы
    Вы не можете отвечать на сообщения
    Вы не можете редактировать свои сообщения
    Вы не можете удалять свои сообщения
    Вы не можете голосовать в опросах
    Вы не можете прикреплять файлы к сообщениям
    Вы можете скачивать файлы