Ссылка на приватное зеркало нашего сайта всего за 1$. Внимание количество ограничено!!!

2 сезон

iTunes

1 сезон

1

iTunes

iTunes

iTunes

1 сезон

RePack

30

ИГРА 18+

pack

ВАЖНО

!!Акция!!

Alien_RageХит недели

RePack

MK11
pack

Забери бонус

RePack

jed

!!Акция!!

Alien_Rage

RePack

fifa19

RePack

Assassins Creed: Odyssey

RePack

NEED FOR SPEED™ PAYBACK

4 сезон

9 сезон

Бесстыжие 9 сезон

Все сериалы

все сериалы на PB.wtf

RePack

FAR CRY 5
  

Новичок / The Rookie (Клинт Иствуд / Clint Eastwood) [1990, боевик, триллер, драма, комедия, криминал, BDRip 720p от _denis_100 / NNNB] DUB, MVO, 3 x AVO pb.wtf

Новичок через торрент pb.wtf

Размер: 7.21 GB | Добавлен: 5 лет 2 мес. назад | Торрент скачан:69 раз
Скачать  

30-07-2015 15:40 Новичок Скачать торрент  

Новичок / The Rookie



Год выпуска: 1990
Страна: США
Жанр: Боевик, триллер, драма, комедия, криминал
Продолжительность: 02:00:45
Перевод: Дублированный
Субтитры: русские
Режиссер: Клинт Иствуд
В ролях: Клинт Иствуд, Чарли Шин, Рауль Хулиа, Соня Брага, Том Скерритт, Лара Флинн Бойл, Пепе Серна, Марко Родригес, Пит Рэндалл, Донна Митчелл, Ксандер Беркли, Тони Плана, Дэвид Шерилл, Хэл Уильямс, Ллойд Нельсон, Мара Кордей, Джерри Шумахер, Мэтт МакКензи, Джоэл Полис, Джордан Лунд, Пол Бен-Виктор, Джинн Мори, Роберта Васкес, Джо Фараго
Описание:
Детективу из Лос-Анджелеса, занимающемуся угонами дорогих машин Нику Пуловски после гибели его напарника дают в помощники новичка — Дэвида Аккермана. Дэвид — вполне благополучный юноша из богатой семьи, окончивший университет, в детстве стал невольным виновником гибели брата. Он испытывает страх и угрызения совести. Переплет, в который они с Ником попадают, преследуя главаря банды угонщиков Строма, заставляют его побороть страх. Рискуя жизнью, Дэвид в одиночку идет на выручку Нику, которого Стром взял в заложники. Он не только помогает Нику избежать гибели, но вдвоем они расправляются с бандой и ее главарем…

Качество: BDRip 720p
Контейнер (Расширение): MKV
Видео кодек: AVC
Аудио кодек: AC3
Видео: 1280x536, 5374 Кбит/сек, 23,976 кадр/сек, 0,327 Бит/[Пиксели*Кадры]
Аудио №1: русский / AC3 / 2.0 / 48 kHz / 192 kbps / |Дублированный|
Аудио №2: русский / AC3 / 5.1 / 48 kHz / 448 kbps / |Многоголосый закадровый|
Аудио №3: русский / AC3 / 5.1 / 48 kHz / 640 kbps / |Авторский, Михаил Яроцкий|
Аудио №4: русский / AC3 / 5.1 / 48 kHz / 448 kbps / |Авторский, Гаврилов (поздний)|
Аудио №5: русский / AC3 / 5.1 / 48 kHz / 640 kbps / |Авторский, Гаврилов (ранний)|
Аудио №6: английский / AC3 / 5.1 / 48 kHz / 640 kbps /
Навигация по главам(Чаптеры): естьАвтор рипа: Сообщество:

Код:

Format                                   : Matroska
Format version                           : Version 2
File size                                : 7.21 GiB
Duration                                 : 2h 0mn
Overall bit rate                         : 8 553 Kbps
Movie name                               : Novichok.(1990).BDRip.720p.[denis100]
Encoded date                             : UTC 2015-07-28 10:28:41
Writing application                      : mkvmerge v5.8.0 ('No Sleep / Pillow') built on Sep  2 2012 15:37:04
Writing library                          : libebml v1.2.3 + libmatroska v1.3.0

Video
ID                                       : 1
Format                                   : AVC
Format/Info                              : Advanced Video Codec
Format profile                           : High@L4.1
Format settings, CABAC                   : Yes
Format settings, ReFrames                : 11 frames
Codec ID                                 : V_MPEG4/ISO/AVC
Duration                                 : 2h 0mn
Bit rate                                 : 5 375 Kbps
Width                                    : 1 280 pixels
Height                                   : 536 pixels
Display aspect ratio                     : 2.40:1
Frame rate                               : 23.976 fps
Color space                              : YUV
Chroma subsampling                       : 4:2:0
Bit depth                                : 8 bits
Scan type                                : Progressive
Bits/(Pixel*Frame)                       : 0.327
Stream size                              : 4.53 GiB (63%)
Title                                    : Novichok.(1990).BDRip.720p.[denis100]
Writing library                          : x264 core 146 r2538 121396c
Encoding settings                        : cabac=1 / ref=11 / deblock=1:-3:-3 / analyse=0x3:0x133 / me=umh / subme=11 / psy=1 / psy_rd=1.00:0.10 / mixed_ref=1 / me_range=32 / chroma_me=1 / trellis=2 / 8x8dct=1 / cqm=0 / deadzone=21,11 / fast_pskip=0 / chroma_qp_offset=-3 / threads=6 / lookahead_threads=1 / sliced_threads=0 / nr=0 / decimate=1 / interlaced=0 / bluray_compat=0 / constrained_intra=0 / bframes=10 / b_pyramid=2 / b_adapt=2 / b_bias=0 / direct=3 / weightb=1 / open_gop=0 / weightp=2 / keyint=240 / keyint_min=23 / scenecut=40 / intra_refresh=0 / rc=crf / mbtree=0 / crf=17.0 / qcomp=0.60 / qpmin=0 / qpmax=69 / qpstep=4 / ip_ratio=1.40 / pb_ratio=1.30 / aq=1:1.00
Language                                 : English
Default                                  : Yes
Forced                                   : No

Audio #1
ID                                       : 2
Format                                   : AC-3
Format/Info                              : Audio Coding 3
Mode extension                           : CM (complete main)
Codec ID                                 : A_AC3
Duration                                 : 2h 0mn
Bit rate mode                            : Constant
Bit rate                                 : 192 Kbps
Channel(s)                               : 2 channels
Channel positions                        : Front: L R
Sampling rate                            : 48.0 KHz
Bit depth                                : 16 bits
Compression mode                         : Lossy
Stream size                              : 166 MiB (2%)
Title                                    : Дублированный
Language                                 : Russian
Default                                  : Yes
Forced                                   : No

Audio #2
ID                                       : 3
Format                                   : AC-3
Format/Info                              : Audio Coding 3
Mode extension                           : CM (complete main)
Codec ID                                 : A_AC3
Duration                                 : 2h 0mn
Bit rate mode                            : Constant
Bit rate                                 : 448 Kbps
Channel(s)                               : 6 channels
Channel positions                        : Front: L C R, Side: L R, LFE
Sampling rate                            : 48.0 KHz
Bit depth                                : 16 bits
Compression mode                         : Lossy
Stream size                              : 387 MiB (5%)
Title                                    : Многоголосый закадровый
Language                                 : Russian
Default                                  : No
Forced                                   : No

Audio #3
ID                                       : 4
Format                                   : AC-3
Format/Info                              : Audio Coding 3
Mode extension                           : CM (complete main)
Codec ID                                 : A_AC3
Duration                                 : 2h 0mn
Bit rate mode                            : Constant
Bit rate                                 : 640 Kbps
Channel(s)                               : 6 channels
Channel positions                        : Front: L C R, Side: L R, LFE
Sampling rate                            : 48.0 KHz
Bit depth                                : 16 bits
Compression mode                         : Lossy
Stream size                              : 553 MiB (7%)
Title                                    : Авторский, Михаил Яроцкий
Language                                 : Russian
Default                                  : No
Forced                                   : No

Audio #4
ID                                       : 5
Format                                   : AC-3
Format/Info                              : Audio Coding 3
Mode extension                           : CM (complete main)
Codec ID                                 : A_AC3
Duration                                 : 2h 0mn
Bit rate mode                            : Constant
Bit rate                                 : 448 Kbps
Channel(s)                               : 6 channels
Channel positions                        : Front: L C R, Side: L R, LFE
Sampling rate                            : 48.0 KHz
Bit depth                                : 16 bits
Compression mode                         : Lossy
Stream size                              : 387 MiB (5%)
Title                                    : Авторский, Гаврилов (поздний)
Language                                 : Russian
Default                                  : No
Forced                                   : No

Audio #5
ID                                       : 6
Format                                   : AC-3
Format/Info                              : Audio Coding 3
Mode extension                           : CM (complete main)
Codec ID                                 : A_AC3
Duration                                 : 2h 0mn
Bit rate mode                            : Constant
Bit rate                                 : 640 Kbps
Channel(s)                               : 6 channels
Channel positions                        : Front: L C R, Side: L R, LFE
Sampling rate                            : 48.0 KHz
Bit depth                                : 16 bits
Compression mode                         : Lossy
Stream size                              : 553 MiB (7%)
Title                                    : Авторский, Гаврилов (ранний)
Language                                 : Russian
Default                                  : No
Forced                                   : No

Audio #6
ID                                       : 7
Format                                   : AC-3
Format/Info                              : Audio Coding 3
Mode extension                           : CM (complete main)
Codec ID                                 : A_AC3
Duration                                 : 2h 0mn
Bit rate mode                            : Constant
Bit rate                                 : 640 Kbps
Channel(s)                               : 6 channels
Channel positions                        : Front: L C R, Side: L R, LFE
Sampling rate                            : 48.0 KHz
Bit depth                                : 16 bits
Compression mode                         : Lossy
Stream size                              : 553 MiB (7%)
Language                                 : English
Default                                  : No
Forced                                   : No

Text
ID                                       : 8
Format                                   : UTF-8
Codec ID                                 : S_TEXT/UTF8
Codec ID/Info                            : UTF-8 Plain Text
Language                                 : Russian
Default                                  : No
Forced                                   : No

Menu
00:00:00.000                             : en:00:00:00.000
00:02:28.354                             : en:00:02:28.354
00:07:25.735                             : en:00:07:25.735
00:11:15.130                             : en:00:11:15.130
00:15:22.254                             : en:00:15:22.254
00:17:39.016                             : en:00:17:39.016
00:21:30.038                             : en:00:21:30.038
00:24:12.325                             : en:00:24:12.325
00:25:40.538                             : en:00:25:40.538
00:29:44.949                             : en:00:29:44.949
00:34:10.088                             : en:00:34:10.088
00:38:12.539                             : en:00:38:12.539
00:43:34.152                             : en:00:43:34.152
00:47:15.873                             : en:00:47:15.873
00:50:10.090                             : en:00:50:10.090
00:54:22.425                             : en:00:54:22.425
00:56:57.996                             : en:00:56:57.996
00:59:31.150                             : en:00:59:31.150
01:01:09.289                             : en:01:01:09.289
01:06:31.445                             : en:01:06:31.445
01:08:36.362                             : en:01:08:36.362
01:12:25.297                             : en:01:12:25.297
01:15:03.916                             : en:01:15:03.916
01:20:47.841                             : en:01:20:47.841
01:25:18.238                             : en:01:25:18.238
01:27:58.273                             : en:01:27:58.273
01:30:31.634                             : en:01:30:31.634
01:33:29.770                             : en:01:33:29.770
01:37:09.573                             : en:01:37:09.573
01:43:00.881                             : en:01:43:00.881
01:46:49.528                             : en:01:46:49.528
01:49:07.707                             : en:01:49:07.707
01:50:08.975                             : en:01:50:08.975
01:54:04.420                             : en:01:54:04.420
01:56:58.094                             : en:01:56:58.094

x264 [info]: frame I:1263 Avg QP:13.91 size: 98578
x264 [info]: frame P:35606 Avg QP:14.94 size: 53052
x264 [info]: frame B:136852 Avg QP:17.41 size: 21972
x264 [info]: consecutive B-frames: 1.5% 1.8% 6.5% 16.4% 16.0% 49.1% 5.7% 1.6% 0.7% 0.3% 0.3%
pb.wtf



Скачать Новичок через торрент http://5.firepic.org/5/images/2015-07/30/pbkui9y0oxma.png Скачать фильм Новичок через торрент бесплантно в хорошем качестве Описание:Детективу из Лос-Анджелеса, занимающемуся угонами дорогих машин Нику Пуловски после гибели его напарника дают в помощники новичка ... 8.8 10 13
Info! Золотая раздача, скачанное не засчитывается.
Торрент: Зарегистрирован [2015-07-30 15:40] · скачан: 69 раз
Статус: √ проверено
Размер: 7.21 GB
Как cкачать? Как скачать Новичок через торрент | qTorrent

% Раздел Тема Автор DL S | L
Фильмы [HD 720p, 1080p] (Хороший звук DUB, MVO) [ 12.7 GB ] Новичок / The Rookie [1990 BDRip 1080p by msltel] DUB MVO 3 x AVO msltel Скачать
1 | 0

28-11-2019 20:33  

Отключить всю рекламу на сайте

30-07-2015 16:33 Новичок Скачать торрент  

фильм супер, смотреть до конца! pb.wtf



    Дорогой пользователь! Огромная просьба, поблагодарите релизера, оцените раздачу и оставьте свои комментарий, если Вы скачали Новичок через торрент бесплатно! Внесите свою лепту в развитие PiratBit!
    Комментировать посты могут только пользователи прошедшие не сложную регистрацию
    Показать сообщения:    

    Новичок через торрент
    Скачать бесплатно Новичок
    Новичок скачать торрент
    Новичок смотреть онлайн
    Cкачать фильм Новичок бесплатно
    Новичок скачать торрент в хорошем качестве
    Новичок смотреть онлайн бесплатно в хорошем качестве


    Вы не можете начинать темы
    Вы не можете отвечать на сообщения
    Вы не можете редактировать свои сообщения
    Вы не можете удалять свои сообщения
    Вы не можете голосовать в опросах
    Вы не можете прикреплять файлы к сообщениям
    Вы можете скачивать файлы