Marvel's Avengers Deluxe Edition (супер цена) 159р. Внимание количество ограничено!!!

2 сезон

iTunes

iTunes

1

iTunes

iTunes

iTunes

WEBRip

iTunes

30
pack

Новость дня

ВАЖНО

!!Акция!!

Alien_RageХит недели

RePack

Horizon Zero Dawn

ИГРА 18+

pack

RePack

jed

!!Акция!!

Alien_Rage

RePack

fifa19

RePack

Assassins Creed: Odyssey

RePack

NEED FOR SPEED™ PAYBACK

4 сезон

9 сезон

Бесстыжие 9 сезон

Все сериалы

все сериалы на PB.wtf

RePack

FAR CRY 5
  

Номер 44 / Child 44 (Даниэль Эспиноса / Daniel Espinosa) [2014, триллер, детектив, криминал, BDRip-AVC от potroks] Dub pb.wtf

Номер 44 через торрент pb.wtf

Раздают: 1 [ 0 KB/s ]
Размер: 2.91 GB | Добавлен: 5 лет 1 мес. назад | Торрент скачан:1049 раз
Скачать  

30-07-2015 17:18 Номер 44 Скачать торрент  

Номер 44 / Child 44
«Можно ли найти убийцу, которого нет»
Год выпуска: 2014
Страна: США, Великобритания, Чехия, Румыния / Summit Entertainment, Worldview Entertainment
Жанр: триллер, детектив, криминал, драма
Продолжительность: 02:17:10
Перевод: Дубляж [iTunes]
Субтитры: английские (Full), английские (SDH)
Навигация по главам: есть
Режиссер: Даниэль Эспиноса / Daniel Espinosa
В ролях:

Том Харди (Leo Demidov), Гари Олдман (General Mikhail Nesterov), Нуми Рапас (Raisa Demidov), Юэль Киннаман (Vasili), Пэдди Консидайн (Vladimir Malevich), Джейсон Кларк (Anatoly Tarasovich Brodsky), Венсан Кассель (Major Kuzmin), Ксавьер Аткинс (Young Leo Demidov), Марк Льюис Джонс (Tortoise), Фарес Фарес (Alexei Andreyev), Карел Добрей (Photographer), Агнешка Гроховска (Nina Andreyeva)
Описание: СССР, начало 50-ых годов. Офицер МГБ Лев Демидов решает расследовать серию убийств детей, но проблема в том, что это идёт вразрез с утверждением «у нас убийств нет» самого тов. Сталина...

Качество: BDRip-AVC
Формат: MKV
Видео кодек: AVC
Аудио кодек: AC3
Видео: AVC, 1092x456 (2.40:1), 2141 kbps, 23,976 fps, 0,179 bit/pixel
Аудио №1: AC3 / 5.1 / 48 kHz / 448 kbps / 16 bit | RUS
Аудио №2: AC3 / 5.1 / 48 kHz / 448 kbps / 16 bit | ENG
Релиз группы:
Автор рипа: potroks

Код:

General
Unique ID                                : 212892566494168389319618925218308679507 (0xA0299DEB82B8623DB5FC7A38AA8DE753)
Complete name                            : N:\Триллер\Nomer.44.2014.DUAL.BDRip.x264.-HELLYWOOD.mkv
Format                                   : Matroska
Format version                           : Version 4 / Version 2
File size                                : 2.91 GiB
Duration                                 : 2h 17mn
Overall bit rate                         : 3 039 Kbps
Movie name                               : Child 44 (2015) - HELLYWOOD
Encoded date                             : UTC 2015-07-30 16:57:37
Writing application                      : mkvmerge v5.9.0 ('On The Loose') built on Dec 15 2012 16:39:58
Writing library                          : libebml v1.3.0 + libmatroska v1.4.0

Video
ID                                       : 1
Format                                   : AVC
Format/Info                              : Advanced Video Codec
Format profile                           : High@L4.1
Format settings, CABAC                   : Yes
Format settings, ReFrames                : 10 frames
Codec ID                                 : V_MPEG4/ISO/AVC
Duration                                 : 2h 17mn
Bit rate                                 : 2 141 Kbps
Width                                    : 1 092 pixels
Height                                   : 456 pixels
Display aspect ratio                     : 2.40:1
Frame rate                               : 23.976 fps
Color space                              : YUV
Chroma subsampling                       : 4:2:0
Bit depth                                : 8 bits
Scan type                                : Progressive
Bits/(Pixel*Frame)                       : 0.179
Stream size                              : 2.00 GiB (69%)
Title                                    : potroks
Writing library                          : x264 core 146 r2538 121396c
Encoding settings                        : cabac=1 / ref=10 / deblock=1:-3:-3 / analyse=0x3:0x113 / me=umh / subme=11 / psy=1 / psy_rd=1.00:0.03 / mixed_ref=1 / me_range=48 / chroma_me=1 / trellis=2 / 8x8dct=1 / cqm=0 / deadzone=21,11 / fast_pskip=0 / chroma_qp_offset=-3 / threads=9 / lookahead_threads=2 / sliced_threads=0 / nr=0 / decimate=1 / interlaced=0 / bluray_compat=0 / constrained_intra=0 / bframes=11 / b_pyramid=2 / b_adapt=2 / b_bias=0 / direct=3 / weightb=1 / open_gop=0 / weightp=2 / keyint=250 / keyint_min=23 / scenecut=40 / intra_refresh=0 / rc_lookahead=60 / rc=2pass / mbtree=0 / bitrate=2141 / ratetol=1.0 / qcomp=0.70 / qpmin=0 / qpmax=69 / qpstep=4 / cplxblur=20.0 / qblur=0.5 / vbv_maxrate=14000 / vbv_bufsize=14000 / nal_hrd=none / filler=0 / ip_ratio=1.35 / pb_ratio=1.25 / aq=1:0.80
Language                                 : English
Default                                  : Yes
Forced                                   : No

Audio #1
ID                                       : 2
Format                                   : AC-3
Format/Info                              : Audio Coding 3
Mode extension                           : CM (complete main)
Codec ID                                 : A_AC3
Duration                                 : 2h 17mn
Bit rate mode                            : Constant
Bit rate                                 : 448 Kbps
Channel(s)                               : 6 channels
Channel positions                        : Front: L C R, Side: L R, LFE
Sampling rate                            : 48.0 KHz
Bit depth                                : 16 bits
Compression mode                         : Lossy
Stream size                              : 440 MiB (15%)
Title                                    : Dub | DD 5.1 @ 448 kbps - iTunes
Language                                 : Russian
Default                                  : Yes
Forced                                   : No

Audio #2
ID                                       : 3
Format                                   : AC-3
Format/Info                              : Audio Coding 3
Mode extension                           : CM (complete main)
Codec ID                                 : A_AC3
Duration                                 : 2h 17mn
Bit rate mode                            : Constant
Bit rate                                 : 448 Kbps
Channel(s)                               : 6 channels
Channel positions                        : Front: L C R, Side: L R, LFE
Sampling rate                            : 48.0 KHz
Bit depth                                : 16 bits
Compression mode                         : Lossy
Stream size                              : 440 MiB (15%)
Title                                    : Original | DD 5.1 @ 448 kbps
Language                                 : English
Default                                  : No
Forced                                   : No

Text #1
ID                                       : 4
Format                                   : UTF-8
Codec ID                                 : S_TEXT/UTF8
Codec ID/Info                            : UTF-8 Plain Text
Title                                    : Full
Language                                 : English
Default                                  : No
Forced                                   : No

Text #2
ID                                       : 5
Format                                   : UTF-8
Codec ID                                 : S_TEXT/UTF8
Codec ID/Info                            : UTF-8 Plain Text
Title                                    : SDH
Language                                 : English
Default                                  : No
Forced                                   : No

Menu
00:00:00.000                             : en:(01)00:00:00:000
00:06:34.060                             : en:(02)00:06:34:060
00:17:19.288                             : en:(03)00:17:19:288
00:22:45.195                             : en:(04)00:22:45:195
00:33:14.450                             : en:(05)00:33:14:450
00:40:53.992                             : en:(06)00:40:53:992
00:48:27.445                             : en:(07)00:48:27:445
00:59:22.766                             : en:(08)00:59:22:766
01:03:56.164                             : en:(09)01:03:56:164
01:10:16.420                             : en:(10)01:10:16:420
01:19:23.381                             : en:(11)01:19:23:381
01:28:12.787                             : en:(12)01:28:12:787
01:38:45.667                             : en:(13)01:38:45:667
01:47:48.920                             : en:(14)01:47:48:920
01:54:15.055                             : en:(15)01:54:15:055
02:02:20.373                             : en:(16)02:02:20:373
02:17:10.805                             : en:(17)02:17:10:805

pb.wtf



Скачать Номер 44 через торрент http://i72.fastpic.ru/big/2015/0730/62/5c2a35ebeda85bd0b098957f56800f62.png Скачать фильм Номер 44 через торрент бесплантно в хорошем качестве Описание: СССР, начало 50-ых годов. Офицер МГБ Лев Демидов решает расследовать серию убийств детей, но проблема в том, что это идёт ... 8.8 10 26
Info! Золотая раздача, скачанное не засчитывается.
Торрент: Зарегистрирован [2015-07-30 17:18] · скачан: 1 049 раз
Статус: √ проверено
Размер: 2.91 GB
Как cкачать? Как скачать Номер 44 через торрент | qTorrent

% Раздел Тема Автор DL S | L
Фильмы с украинским озвучиванием [ 1.91 GB ] Номер 44 / Child 44 [2015 BDRip-AVC] [Ukr Dub] killermax2013 Скачать
1 | 0

28-11-2019 20:33  

Отключить всю рекламу на сайте

15-08-2015 19:06 Номер 44 Скачать торрент  

Интересный фильм.Реальная драма.Еще раз показывают и доказывают за нашу советскую Влacть,где процветает жестокость,насилие и т.д.Сейчас много рассекреченных документов говорящих об этих делах.pb.wtf



18-08-2015 05:14 Номер 44 Скачать торрент  

К предыдущему.
Особенно снятых нашими заклятыми "друзьями"!!!pb.wtf



18-08-2015 12:01 Номер 44 Скачать торрент  

Такие бредни, что волосы на заднице встали дыбом от сильнейшего баттхёрта. На такие, с позволения сказать, фильмы нужно в ответ снимать свои - о Хиросиме, Вьетнаме, Ираке, Афганистане и показать реальное лицо америки (с маленькой буквы).pb.wtf



18-08-2015 19:02 Номер 44 Скачать торрент  

тот случай когда американцы снимают фильм про русских лучше чем русские про себя, браво, фильм действительно заслуживает аплодисментов, советую к просмотрю.pb.wtf



20-08-2015 22:14 Номер 44 Скачать торрент  

.... Снимите уже это говно с торрента.А выражения людей по поводу той реальности отстой и как бы не в тему.Очередное западное shit.pb.wtf



22-08-2015 15:17 Номер 44 Скачать торрент  

Leama писал(а):

Такие бредни, что волосы на заднице встали дыбом от сильнейшего баттхёрта. На такие, с позволения сказать, фильмы нужно в ответ снимать свои - о Хиросиме, Вьетнаме, Ираке, Афганистане и показать реальное лицо америки (с маленькой буквы).

Вы забыли про смИшную комедию 9/11 sarcasticpb.wtf



23-08-2015 08:14 Номер 44 Скачать торрент  

Надо быть полным долбоебом чтобы судить о советской власти по американским ХУДОЖЕСТВЕННЫМ фильмам))pb.wtf



25-08-2015 15:57 Номер 44 Скачать торрент  

Если отбросить всю политику,то фильм всё равно ерундовый.Ни интриги,ни загадки.Через час нам уже показали маньяка!Я то надеялся его действительно будут ловить.А тут приехали В Ростов и вот он-хватай злодея!Столько звёздных актёров и такая муть!Проходите мимо,не тратьте время!pb.wtf



    Дорогой пользователь! Огромная просьба, поблагодарите релизера, оцените раздачу и оставьте свои комментарий, если Вы скачали Номер 44 через торрент бесплатно! Внесите свою лепту в развитие PiratBit!
    Комментировать посты могут только пользователи прошедшие не сложную регистрацию
    Показать сообщения:    

    Номер 44 через торрент
    Скачать бесплатно Номер 44
    Номер 44 скачать торрент
    Номер 44 смотреть онлайн
    Cкачать фильм Номер 44 бесплатно
    Номер 44 скачать торрент в хорошем качестве
    Номер 44 смотреть онлайн бесплатно в хорошем качестве


    Вы не можете начинать темы
    Вы не можете отвечать на сообщения
    Вы не можете редактировать свои сообщения
    Вы не можете удалять свои сообщения
    Вы не можете голосовать в опросах
    Вы не можете прикреплять файлы к сообщениям
    Вы можете скачивать файлы