Ссылка на приватное зеркало нашего сайта всего за 1$. Внимание количество ограничено!!!

2 сезон

iTunes

1 сезон

1

iTunes

iTunes

iTunes

1 сезон

RePack

30

ИГРА 18+

pack

ВАЖНО

!!Акция!!

Alien_RageХит недели

RePack

MK11
pack

Забери бонус

RePack

jed

!!Акция!!

Alien_Rage

RePack

fifa19

RePack

Assassins Creed: Odyssey

RePack

NEED FOR SPEED™ PAYBACK

4 сезон

9 сезон

Бесстыжие 9 сезон

Все сериалы

все сериалы на PB.wtf

RePack

FAR CRY 5
  

Переправа / The Crossing (Джон Ву / John Woo) [2014, Китай, Япония, Корея Южная, США, драма, история, BDRip 720p, Дубляж] iTunes pb.wtf

Переправа через торрент pb.wtf

Размер: 5.81 GB | Добавлен: 5 лет 2 мес. назад | Торрент скачан:1166 раз
Скачать  

31-07-2015 01:04 Переправа Скачать торрент  

Переправа / The Crossing
«Самое сложное время, чтобы любить»


  • Год выпуска: 2014
  • Страна: Китай, Япония, Корея Южная, США
  • Жанр: драма, история
  • Продолжительность: 02:08:14
  • Перевод: Дубляж - [Лицензия / iTunes]
  • Субтитры: (Simplified), китайские (Traditional),
  • Режиссер: Джон Ву / John Woo
  • В ролях:

    Такэси Канэсиро (Yan Shikun), Чжан Цзыи (Yu Zhen), Сон Хё Гю (Zhou Yunfen), Хуан Сяомин (Lei Yifang), Тун Давэй (Tong Daqing), Масами Нагасава (Masako Shimura), Шан Конг, Джек Као, Хитоми Куроки, Боуи Лам, Вэй Ли, Хайлу Цинь

  • Описание:
    В центре повествования три пары, чьи судьбы драматически связаны с событиями, которые разворачиваются на фоне военных действий. Фильм основан на реальной трагедии потопления корабля «Тайпин», произошедшем в 1949 году и унесший жизни более 1500 пассажиров и экипажа.
  • Рейтинг:



  • Качество: BDRip 720p
  • Формат: :MKV
  • Видео кодек: AVC
  • Аудио кодек: AC3
  • Видео: 1280x536 (2.40:1), 5456 kbps, 24 fps, 0,331 bpp
  • Аудио №1: русский / 5.1 / 48 kHz / 384 kbps / 16 bit |[Лицензия / iTunes]|
  • Аудио №2: китайский / 5.1 / 48 kHz / 640 kbps / 16 bit
  • Релиз от: GEKADOL

    Код:

    General
    Unique ID                                : 246812551940822104623564795272147317967 (0xB9AE5E524D993021B8E258D4228534CF)
    Complete name                            : F:\pePepPaBa..2014.D.BDRip.720p.mkv
    Format                                   : Matroska
    Format version                           : Version 2
    File size                                : 5.81 GiB
    Duration                                 : 2h 8mn
    Overall bit rate                         : 6 485 Kbps
    Movie name                               : Jubowo @ WiKi
    Encoded date                             : UTC 2015-07-30 18:53:33
    Writing application                      : mkvmerge v8.2.0 ('World of Adventure') 64bit
    Writing library                          : libebml v1.3.1 + libmatroska v1.4.2
    DURATION                                 : 02:08:12.608000000
    NUMBER_OF_FRAMES                         : 240394
    NUMBER_OF_BYTES                          : 369245184
    _STATISTICS_WRITING_APP                  : mkvmerge v8.2.0 ('World of Adventure') 64bit
    _STATISTICS_WRITING_DATE_UTC             : 2015-07-30 18:53:33
    _STATISTICS_TAGS                         : BPS DURATION NUMBER_OF_FRAMES NUMBER_OF_BYTES

    Video
    ID                                       : 1
    Format                                   : AVC
    Format/Info                              : Advanced Video Codec
    Format profile                           : High@L4.1
    Format settings, CABAC                   : Yes
    Format settings, ReFrames                : 12 frames
    Codec ID                                 : V_MPEG4/ISO/AVC
    Duration                                 : 2h 8mn
    Bit rate                                 : 5 456 Kbps
    Width                                    : 1 280 pixels
    Height                                   : 536 pixels
    Display aspect ratio                     : 2.40:1
    Frame rate                               : 24.000 fps
    Color space                              : YUV
    Chroma subsampling                       : 4:2:0
    Bit depth                                : 8 bits
    Scan type                                : Progressive
    Bits/(Pixel*Frame)                       : 0.331
    Stream size                              : 4.78 GiB (82%)
    Writing library                          : x264 core 129 r2245+704+36 8e61944 tMod+MixAQ [8-bit@4:2:0 X86_64]
    Encoding settings                        : cabac=1 / ref=12 / deblock=1:-3:-3 / analyse=0x3:0x133 / me=umh / subme=11 / psy=1 / fade_compensate=0.00 / psy_rd=1.05:0.10 / mixed_ref=1 / me_range=32 / chroma_me=1 / trellis=2 / 8x8dct=1 / cqm=0 / deadzone=21,11 / fast_pskip=0 / chroma_qp_offset=-3 / threads=18 / lookahead_threads=3 / sliced_threads=0 / nr=0 / decimate=0 / interlaced=0 / bluray_compat=0 / constrained_intra=0 / fgo=0 / bframes=10 / b_pyramid=2 / b_adapt=2 / b_bias=0 / direct=3 / weightb=1 / open_gop=0 / weightp=2 / keyint=250 / keyint_min=23 / scenecut=40 / intra_refresh=0 / rc_lookahead=80 / rc=2pass / mbtree=1 / bitrate=5456 / ratetol=1.0 / qcomp=0.70 / qpmin=0 / qpmax=69 / qpstep=4 / cplxblur=20.0 / qblur=0.5 / ip_ratio=1.40 / aq=1 / aq-strength=0.85 / aq-sensitivity=10.00 / aq-ifactor=1.00 / aq-pfactor=1.00 / aq-bfactor=1.00 / aq2=0
    Language                                 : Chinese
    Default                                  : Yes
    Forced                                   : No
    Matrix coefficients                      : BT.709-5, BT.1361, IEC 61966-2-4 709, SMPTE RP177

    Audio #1
    ID                                       : 2
    Format                                   : AC-3
    Format/Info                              : Audio Coding 3
    Mode extension                           : CM (complete main)
    Codec ID                                 : A_AC3
    Duration                                 : 2h 8mn
    Bit rate mode                            : Constant
    Bit rate                                 : 384 Kbps
    Channel(s)                               : 6 channels
    Channel positions                        : Front: L C R, Side: L R, LFE
    Sampling rate                            : 48.0 KHz
    Bit depth                                : 16 bits
    Compression mode                         : Lossy
    Stream size                              : 352 MiB (6%)
    Language                                 : Russian
    Default                                  : Yes
    Forced                                   : No

    Audio #2
    ID                                       : 3
    Format                                   : AC-3
    Format/Info                              : Audio Coding 3
    Mode extension                           : CM (complete main)
    Codec ID                                 : A_AC3
    Duration                                 : 2h 8mn
    Bit rate mode                            : Constant
    Bit rate                                 : 640 Kbps
    Channel(s)                               : 6 channels
    Channel positions                        : Front: L C R, Side: L R, LFE
    Sampling rate                            : 48.0 KHz
    Bit depth                                : 16 bits
    Compression mode                         : Lossy
    Stream size                              : 587 MiB (10%)
    Language                                 : Chinese
    Default                                  : No
    Forced                                   : No

    Text #1
    ID                                       : 4
    Format                                   : UTF-8
    Codec ID                                 : S_TEXT/UTF8
    Codec ID/Info                            : UTF-8 Plain Text
    Title                                    : Simplified
    Default                                  : Yes
    Forced                                   : No

    Text #2
    ID                                       : 5
    Format                                   : UTF-8
    Codec ID                                 : S_TEXT/UTF8
    Codec ID/Info                            : UTF-8 Plain Text
    Title                                    : Traditional
    Language                                 : Chinese
    Default                                  : No
    Forced                                   : No

    Menu
    00:00:00.000                             : en:00:00:00.000
    00:11:49.708                             : en:00:11:49.708
    00:19:25.250                             : en:00:19:25.250
    00:26:32.583                             : en:00:26:32.583
    00:36:24.416                             : en:00:36:24.416
    00:43:05.416                             : en:00:43:05.416
    00:54:03.916                             : en:00:54:03.916
    01:03:53.708                             : en:01:03:53.708
    01:11:12.375                             : en:01:11:12.375
    01:21:18.291                             : en:01:21:18.291
    01:26:56.875                             : en:01:26:56.875
    01:33:13.958                             : en:01:33:13.958
    01:41:22.916                             : en:01:41:22.916
    01:50:31.041                             : en:01:50:31.041
    02:02:11.541                             : en:02:02:11.541




    Скриншоты:



    pb.wtf



  • Скачать Переправа через торрент http://i2.imageban.ru/out/2015/07/31/d3271c445942959a3885d9b7ed7aa4e3.jpg Скачать фильм Переправа через торрент бесплантно в хорошем качестве Описание: В центре повествования три пары, чьи судьбы драматически связаны с событиями, которые разворачиваются на фоне военных действий. ... 9.8 10 36
    Info! Золотая раздача, скачанное не засчитывается.
    Торрент: Зарегистрирован [2015-07-31 01:04] · скачан: 1 166 раз
    Статус: √ проверено
    Размер: 5.81 GB
    Как cкачать? Как скачать Переправа через торрент | qTorrent

    % Раздел Тема Автор DL S | L
    Азиатские фильмы [ 2.86 GB ] Переправа 2 / The Crossing 2 [2015 BDRip-AVC] Dub potroks Скачать
    1 | 0
    Азиатские фильмы [ 2.19 GB ] Переправа 2 / The Crossing 2 [2015 HDRip ""] coc900 Скачать
    1 | 0
    Азиатские фильмы [ 4.29 GB ] Переправа 2 / The Crossing 2 [2015 WEB-DL 1080p ] Ворон Скачать
    1 | 0
    Азиатские фильмы [ 1.46 GB ] Переправа 2 / The Crossing 2 [2015 WEB-DLRip ] Ворон Скачать
    1 | 0
    Фильмы 2014 [DVDrip, WEB-DLRip, HDrip] [ 1.37 GB ] Переправа / The Crossing [2014 Китай Япония Корея Южная история HDRip ] GEKADOL Скачать
    1 | 0
    Фильмы [HD 720p, 1080p] (Хороший звук DUB, MVO) [ 14.23 GB ] Переправа / The Crossing [2014 Китай Япония Корея Южная история BDRip 1080p ] GEKADOL Скачать
    1 | 0
    Фильмы 2014 [DVDrip, WEB-DLRip, HDrip] [ 2.19 GB ] Переправа / The Crossing [2014 история HDRip ""] coc900 Скачать
    1 | 0

    28-11-2019 20:33  

    Отключить всю рекламу на сайте

    31-07-2015 04:32 Переправа Скачать торрент  

    Как фильм?pb.wtf



    31-07-2015 05:09 Переправа Скачать торрент  

    Надо смотреть однозначноpb.wtf



    01-08-2015 03:54 Переправа Скачать торрент  

    этж джон ву !pb.wtf



    04-08-2015 20:04 Переправа Скачать торрент  

    смотрел интервью с ним за этот фильм ! думаю посмотреть стоит!
    качаю раздаю!pb.wtf



      Дорогой пользователь! Огромная просьба, поблагодарите релизера, оцените раздачу и оставьте свои комментарий, если Вы скачали Переправа через торрент бесплатно! Внесите свою лепту в развитие PiratBit!
      Комментировать посты могут только пользователи прошедшие не сложную регистрацию
      Показать сообщения:    

      Переправа через торрент
      Скачать бесплатно Переправа
      Переправа скачать торрент
      Переправа смотреть онлайн
      Cкачать фильм Переправа бесплатно
      Переправа скачать торрент в хорошем качестве
      Переправа смотреть онлайн бесплатно в хорошем качестве


      Вы не можете начинать темы
      Вы не можете отвечать на сообщения
      Вы не можете редактировать свои сообщения
      Вы не можете удалять свои сообщения
      Вы не можете голосовать в опросах
      Вы не можете прикреплять файлы к сообщениям
      Вы можете скачивать файлы