Ссылка на приватное зеркало всего за 1$. Внимание количество ограничено!!!

iTunes

1+1

iTunes

мы

WEB-DL

1

iTunes

Чернобыль

iTunes

Ральф против интернета

Лицензия

ПШазам

Лицензия

Оно 2

Лицензия

30
pack

Вам бонус

ВАЖНО

!!Акция!!

Alien_RageХит недели

RePack

Resident Evil 21

ИГРА 18+

pack

RePack

jed

!!Акция!!

Alien_Rage

RePack

fifa19

RePack

Assassins Creed: Odyssey

RePack

NEED FOR SPEED™ PAYBACK

3 сезон

9 сезон

Бесстыжие 9 сезон

Все сериалы

все сериалы на PB.wtf

RePack

FAR CRY 5
Ребята, катастрофически не хватает 1900р. для оплаты серверов за Октябрь (всвязи с блокировками трафик упал в 3 раза), 1-2р., выручайте.
  

Страницы жизни (Борис Барнет, Александр Мачерет) [1948, СССР, мелодрама, SATRip от AVP Studio] pb.wtf

Страницы жизни через торрент pb.wtf

Размер: 1.09 GB | Добавлен: 4 года 4 мес. назад | Торрент скачан:3 раза
Скачать  

31-07-2015 11:29 Страницы жизни Скачать торрент  

Страницы жизни
Страна: СССР
Производство: Свердловская киностудия

Жанр: мелодрама
Год выпуска: 1948
Продолжительность: 01:08:59

Перевод: Не требуется
Cубтитры: нет
Оригинальная аудиодорожка: русский

Режиссер: Борис Барнет, Александр Мачерет

В ролях:
Татьяна Еремеева, Наталия Кутасина, Виктор Хохряков, Владимир Дорофеев, Николай Бадьев, Алексей Берёзкин, Гавриил Белов, Елена Вольская. Екатерина Савинова, Клавдия Хабарова...

Описание:
Деревенская девушка Нина Ермакова приезжает на одну из крупных новостроек страны и вскоре становится электросварщицей "Металлургстроя". Нина разрабатывает новый метод сварки, однако понимает, что ей необходимо учиться. Окончив институт, героиня едет в родной город продолжать строить гигантский комбинат в качестве инженера. Во время Великой Отечественной войны Ермакова руководит строительным участком Уралмашзавода. Вернувшись после войны на свой завод, она получает задание в кратчайшие сроки восстановить листопрокатный цех. Взяв в основу проекта скоростного строительства идею своего мужа, крупного инженера-строителя, погибшего на войне, Нина настойчиво идет к цели...

Источник: DVB с прорезанными итальянскими сабами, к сожалению это единственный исходник в сети, .
Качество видео: SATRip
Формат видео: AVI
Видео кодек: XviD
Аудио кодек: АС3
Видео: 672x496 (4:3), 25 fps, XviD ~ 2061 kbps avg, 0.247 bit/pixel
Аудио: 48 kHz, Dolby Digital AC3 2.0, 192 kbps

Раздача от:
Общее
Полное имя : Stranicy.zhizni.1948.SATRip_[New-team]_by_AVP_Studio.avi
Формат : AVI
Формат/Информация : Audio Video Interleave
Размер файла : 1,09 Гбайт
Продолжительность : 1 ч. 8 м.
Общий поток : 2263 Кбит/сек
Программа кодирования : VirtualDubMod 1.5.10.3 | www.virtualdub-fr.org || (build 2550/release)
Библиотека кодирования : VirtualDubMod build 2550/release

Видео
Идентификатор : 0
Формат : MPEG-4 Visual
Профиль формата : Advanced Simple@L5
Параметр BVOP формата : 1
Параметр QPel формата : Нет
Параметр GMC формата : Без точки перехода
Параметр матрицы формата : Выборочная
Идентификатор кодека : XVID
Идентификатор кодека/Подсказка : XviD
Продолжительность : 1 ч. 8 м.
Битрейт : 2061 Кбит/сек
Ширина : 672 пикселя
Высота : 496 пикселей
Соотношение сторон : 4:3
Частота кадров : 25,000 кадров/сек
Цветовое пространство : YUV
Субдискретизация насыщенности : 4:2:0
Битовая глубина : 8 бит
Тип развёртки : Прогрессивная
Метод сжатия : С потерями
Бит/(Пиксели*Кадры) : 0.247
Размер потока : 1017 Мбайт (91%)
Библиотека кодирования : XviD 73

Аудио
Идентификатор : 1
Формат : AC-3
Формат/Информация : Audio Coding 3
Расширение режима : CM (complete main)
Параметр Endianness формата : Big
Идентификатор кодека : 2000
Продолжительность : 1 ч. 8 м.
Вид битрейта : Постоянный
Битрейт : 192 Кбит/сек
Каналы : 2 канала
Расположение каналов : Front: L R
Частота : 48,0 КГц
Метод сжатия : С потерями
Размер потока : 94,7 Мбайт (8%)
Выравнивание : Разделение по промежуткам
Продолжительность промежутка : 40 мс. (1,00 видеокадр)
Время предзагрузки промежутка : 500 мс
pb.wtf



Скачать Страницы жизни через торрент http://s45.radikal.ru/i109/1507/da/773dd27376d1.png Скачать фильм Страницы жизни через торрент бесплантно в хорошем качестве Описание:Деревенская девушка Нина Ермакова приезжает на одну из крупных новостроек страны и вскоре становится электросварщицей ... 5 10 1
Info! Золотая раздача, скачанное не засчитывается.
Торрент: Зарегистрирован [2015-07-31 11:29] · скачан: 3 раз
Статус: √ проверено
Размер: 1.09 GB
Как cкачать? Как скачать Страницы жизни через торрент | qTorrent

% Раздел Тема Автор DL S | L
Кино СССР [ 1.09 GB ] Страницы жизни [1948 СССР SATRip-AVC от AVP Studio] AVP Studio Скачать
1 | 0
Кино СССР [ 746 MB ] Страницы жизни [1948 СССР SATRip от AVP Studio] AVP Studio Скачать
1 | 0

28-11-2019 20:33  

Отключить всю рекламу на сайте

    Дорогой пользователь! Огромная просьба, поблагодарите релизера, оцените раздачу и оставьте свои комментарий, если Вы скачали Страницы жизни через торрент бесплатно! Внесите свою лепту в развитие PiratBit!
    Комментировать посты могут только пользователи прошедшие не сложную регистрацию
    Показать сообщения:    

    Страницы жизни через торрент
    Скачать бесплатно Страницы жизни
    Страницы жизни скачать торрент
    Страницы жизни смотреть онлайн
    Cкачать фильм Страницы жизни бесплатно
    Страницы жизни скачать торрент в хорошем качестве
    Страницы жизни смотреть онлайн бесплатно в хорошем качестве


    Вы не можете начинать темы
    Вы не можете отвечать на сообщения
    Вы не можете редактировать свои сообщения
    Вы не можете удалять свои сообщения
    Вы не можете голосовать в опросах
    Вы не можете прикреплять файлы к сообщениям
    Вы можете скачивать файлы