новый адрес
Ссылка на приватное зеркало всего за 1$. Внимание количество ограничено!!!

iTunes

1+1

iTunes

мы

WEB-DL

1

iTunes

Чернобыль

iTunes

Ральф против интернета

Лицензия

ПШазам

Лицензия

Оно 2

Лицензия

30
pack

Вам бонус

ВАЖНО

!!Акция!!

Alien_RageХит недели

RePack

Resident Evil 21

ИГРА 18+

pack

RePack

jed

!!Акция!!

Alien_Rage

RePack

fifa19

RePack

Assassins Creed: Odyssey

RePack

NEED FOR SPEED™ PAYBACK

3 сезон

9 сезон

Бесстыжие 9 сезон

Все сериалы

все сериалы на PB.wtf

RePack

FAR CRY 5
Ребята, катастрофически не хватает 1900р. для оплаты серверов за Октябрь (всвязи с блокировками трафик упал в 3 раза), 1-2р., выручайте.
  

Страницы жизни (Борис Барнет, Александр Мачерет) [1948, СССР, мелодрама, SATRip-AVC от AVP Studio] pb.wtf

Страницы жизни через торрент pb.wtf

Размер: 1.09 GB | Добавлен: 4 года 4 мес. назад | Торрент скачан:10 раз
Скачать  

31-07-2015 12:03 Страницы жизни Скачать торрент  

Страна: СССР
Производство: Свердловская киностудия

Жанр: мелодрама
Год выпуска: 1948
Продолжительность: 01:08:59

Перевод: Не требуется
Cубтитры: нет
Оригинальная аудиодорожка: русский

Режиссер: Борис Барнет, Александр Мачерет

В ролях:
Татьяна Еремеева, Наталия Кутасина, Виктор Хохряков, Владимир Дорофеев, Николай Бадьев, Алексей Берёзкин, Гавриил Белов, Елена Вольская. Екатерина Савинова, Клавдия Хабарова...

Описание:
Деревенская девушка Нина Ермакова приезжает на одну из крупных новостроек страны и вскоре становится электросварщицей "Металлургстроя". Нина разрабатывает новый метод сварки, однако понимает, что ей необходимо учиться. Окончив институт, героиня едет в родной город продолжать строить гигантский комбинат в качестве инженера. Во время Великой Отечественной войны Ермакова руководит строительным участком Уралмашзавода. Вернувшись после войны на свой завод, она получает задание в кратчайшие сроки восстановить листопрокатный цех. Взяв в основу проекта скоростного строительства идею своего мужа, крупного инженера-строителя, погибшего на войне, Нина настойчиво идет к цели...

Источник: DVB с прорезанными итальянскими сабами, к сожалению это единственный исходник в сети, .
Качество видео: SATRip-AVC
Формат видео: MKV
Видео кодек: H.264
Аудио кодек: AC3
Видео: 680->762x572 (4:3), 25 fps, H264 ~ 2067 kbps avg, 0.213 bit/pixel
Аудио: 48 kHz, Dolby Digital AC3 2.0, 192 kbps

Раздача от:
Общее
Полное имя : Stranicy.zhizni.1948.SATRip-AVC_[New-team]_by_AVP_Studio.mkv
Формат : Matroska
Версия формата : Version 2
Размер файла : 1,09 Гбайт
Продолжительность : 1 ч. 8 м.
Общий поток : 2261 Кбит/сек
Дата кодирования : UTC 2015-07-30 18:05:45
Программа кодирования : mkvmerge v6.1.0 ('Old Devil') built on Mar 4 2013 09:10:42
Библиотека кодирования : libebml v1.3.0 + libmatroska v1.4.0

Видео
Идентификатор : 1
Формат : AVC
Формат/Информация : Advanced Video Codec
Профиль формата : High@L4.1
Параметр CABAC формата : Да
Параметр ReFrames формата : 8 кадров
Идентификатор кодека : V_MPEG4/ISO/AVC
Продолжительность : 1 ч. 8 м.
Битрейт : 2067 Кбит/сек
Ширина : 680 пикселей
Высота : 572 пикселя
Соотношение сторон : 4:3
Режим частоты кадров : Постоянный
Частота кадров : 25,000 кадров/сек
Цветовое пространство : YUV
Субдискретизация насыщенности : 4:2:0
Битовая глубина : 8 бит
Тип развёртки : Прогрессивная
Бит/(Пиксели*Кадры) : 0.213
Размер потока : 998 Мбайт (90%)
Библиотека кодирования : x264 core 130 r2273 b3065e6
Настройки программы : cabac=1 / ref=8 / deblock=1:-2:-1 / analyse=0x3:0x113 / me=umh / subme=10 / psy=1 / psy_rd=1.00:0.05 / mixed_ref=1 / me_range=32 / chroma_me=1 / trellis=2 / 8x8dct=1 / cqm=0 / deadzone=21,11 / fast_pskip=0 / chroma_qp_offset=-3 / threads=6 / lookahead_threads=1 / sliced_threads=0 / nr=0 / decimate=0 / interlaced=0 / bluray_compat=0 / constrained_intra=0 / bframes=8 / b_pyramid=2 / b_adapt=2 / b_bias=0 / direct=3 / weightb=1 / open_gop=0 / weightp=2 / keyint=250 / keyint_min=25 / scenecut=40 / intra_refresh=0 / rc=2pass / mbtree=0 / bitrate=2067 / ratetol=1.0 / qcomp=0.60 / qpmin=0 / qpmax=69 / qpstep=4 / cplxblur=20.0 / qblur=0.5 / ip_ratio=1.40 / pb_ratio=1.30 / aq=1:1.00
Default : Да
Forced : Нет

Аудио
Идентификатор : 2
Формат : AC-3
Формат/Информация : Audio Coding 3
Расширение режима : CM (complete main)
Параметр Endianness формата : Big
Идентификатор кодека : A_AC3
Продолжительность : 1 ч. 8 м.
Вид битрейта : Постоянный
Битрейт : 192 Кбит/сек
Каналы : 2 канала
Расположение каналов : Front: L R
Частота : 48,0 КГц
Метод сжатия : С потерями
Размер потока : 94,7 Мбайт (8%)
Default : Да
Forced : Нет
pb.wtf



Скачать Страницы жизни через торрент http://s45.radikal.ru/i109/1507/da/773dd27376d1.png Скачать фильм Страницы жизни через торрент бесплантно в хорошем качестве Описание:Деревенская девушка Нина Ермакова приезжает на одну из крупных новостроек страны и вскоре становится электросварщицей ... 6.8 10 4
Info! Золотая раздача, скачанное не засчитывается.
Торрент: Зарегистрирован [2015-07-31 12:03] · скачан: 10 раз
Статус: √ проверено
Размер: 1.09 GB
Как cкачать? Как скачать Страницы жизни через торрент | qTorrent

% Раздел Тема Автор DL S | L
Кино СССР [ 746 MB ] Страницы жизни [1948 СССР SATRip от AVP Studio] AVP Studio Скачать
1 | 0
Кино СССР [ 1.09 GB ] Страницы жизни [1948 СССР SATRip от AVP Studio] AVP Studio Скачать
1 | 0

28-11-2019 20:33  

Отключить всю рекламу на сайте

    Дорогой пользователь! Огромная просьба, поблагодарите релизера, оцените раздачу и оставьте свои комментарий, если Вы скачали Страницы жизни через торрент бесплатно! Внесите свою лепту в развитие PiratBit!
    Комментировать посты могут только пользователи прошедшие не сложную регистрацию
    Показать сообщения:    

    Страницы жизни через торрент
    Скачать бесплатно Страницы жизни
    Страницы жизни скачать торрент
    Страницы жизни смотреть онлайн
    Cкачать фильм Страницы жизни бесплатно
    Страницы жизни скачать торрент в хорошем качестве
    Страницы жизни смотреть онлайн бесплатно в хорошем качестве


    Вы не можете начинать темы
    Вы не можете отвечать на сообщения
    Вы не можете редактировать свои сообщения
    Вы не можете удалять свои сообщения
    Вы не можете голосовать в опросах
    Вы не можете прикреплять файлы к сообщениям
    Вы можете скачивать файлы