Ссылка на приватное зеркало всего за 1$. Внимание количество ограничено!!!

OK

1+1

iTunes

мы

OK

1

WEB-DLRip

Джокер

Пифагор

Ведьмак / The Witcher сериал

Лицензия

ПШазам

ОК

Оно 2

iTunes

30
pack

Вам бонус

ВАЖНО

!!Акция!!

Alien_RageХит недели

RePack

Resident Evil 21

ИГРА 18+

pack

RePack

jed

!!Акция!!

Alien_Rage

RePack

fifa19

RePack

Assassins Creed: Odyssey

RePack

NEED FOR SPEED™ PAYBACK

4 сезон

9 сезон

Бесстыжие 9 сезон

Все сериалы

все сериалы на PB.wtf

RePack

FAR CRY 5
  

Убрать из друзей / Unfriended (Леван Габриадзе) [2015, ужасы, триллер, WEB-DLRip-AVC] DUB - Лицензия / iTunes pb.wtf

Убрать из друзей через торрент pb.wtf

Размер: 1.08 GB | Добавлен: 4 года 5 мес. назад | Торрент скачан:508 раз
Скачать  

31-07-2015 12:38 Убрать из друзей Скачать торрент  

Убрать из друзей / Unfriended
«С такими друзьями враги не нужны»


Год выпуска: 2015
Страна: США, Россия
Жанр: ужасы, триллер
Продолжительность: 01:22:01
Перевод: Дубляж - [Лицензия / iTunes]
Навигация по главам: есть
Режиссер: Леван Габриадзе
В ролях: Шелли Хенниг (Blaire Lily), Моусес Сторм (Mitch Roussel), Рени Олстэд (Jess Felton), Уилл Пельтц (Adam Sewell), Джейкоб Высоцки (Ken Smith), Кортни Хэлверсон (Val Rommel), Хезер Соссамэн (Laura Barns), Мэттью Борер (Matt), Мики Ривер (Dank Jimmy), Кэл Барнс (Rando Pauls), Криста Хартсок (Chatroulette Girl), Энтони Эфтимео (Student, в титрах не указан)
Описание:
Обычный вечер после школы. К скайпу влюбленных Блэр и Митча подключаются друзья - Адам, Джес, Кен и Вэл... и кто-то седьмой с ником Billy227. Все уверены, что это компьютерный глюк, пока неизвестный не начинает им писать. Билли хочет знать, кто выложил в Сеть скандальное видео с их одноклассницей Лорой Барнс, из-за которого девушка покончила с собой. И он готов выяснить это любой ценой. Друзьям кажется, что можно просто выйти из чата, но это только кажется.
, MPAA: R - Лицам до 17 лет обязательно присутствие взрослого
Качество: WEB-DLRip-AVC
Формат: MKV
Видео кодек: AVC
Аудио кодек: AC3
Видео: AVC, 1024x576 (16:9), 1460 kbps, 24 fps, 0,103 bpp
Аудио: русский / AC3 / 5.1 / 48 kHz / 384 kbps / 16 bit ||
Примечание: Русский локализованный видеоряд.

Код:

General
Unique ID                                : 238646501702428872272791889117917435794 (0xB389A4F5C5DC46C28744DFADCE375792)
Complete name                            : E:\торент\Unfriended.2015.D.WEB-DLRip.(AVC).mkv
Format                                   : Matroska
Format version                           : Version 4 / Version 2
File size                                : 1.08 GiB
Duration                                 : 1h 22mn
Overall bit rate                         : 1 882 Kbps
Encoded date                             : UTC 2015-07-31 09:32:00
Writing application                      : mkvmerge v8.1.0 ('Psychedelic Postcard') 32bit
Writing library                          : Lavf56.22.100
DURATION                                 : 01:22:01.504000000
NUMBER_OF_FRAMES                         : 153797
NUMBER_OF_BYTES                          : 236232192
_STATISTICS_WRITING_APP                  : mkvmerge v8.1.0 ('Psychedelic Postcard') 32bit
_STATISTICS_WRITING_DATE_UTC             : 2015-07-31 08:25:41
_STATISTICS_TAGS                         : BPS DURATION NUMBER_OF_FRAMES NUMBER_OF_BYTES

Video
ID                                       : 1
Format                                   : AVC
Format/Info                              : Advanced Video Codec
Format profile                           : High@L4.1
Format settings, CABAC                   : Yes
Format settings, ReFrames                : 7 frames
Codec ID                                 : V_MPEG4/ISO/AVC
Duration                                 : 1h 22mn
Bit rate                                 : 1 461 Kbps
Nominal bit rate                         : 2 650 Kbps
Width                                    : 1 024 pixels
Height                                   : 576 pixels
Display aspect ratio                     : 16:9
Frame rate mode                          : Variable
Frame rate                               : 24.000 fps
Standard                                 : Component
Color space                              : YUV
Chroma subsampling                       : 4:2:0
Bit depth                                : 8 bits
Scan type                                : Progressive
Bits/(Pixel*Frame)                       : 0.103
Stream size                              : 857 MiB (78%)
Writing library                          : x264 core 144 r2525
Encoding settings                        : cabac=1 / ref=7 / deblock=1:0:0 / analyse=0x3:0x102 / me=umh / subme=7 / psy=1 / psy_rd=0.10:2.00 / mixed_ref=0 / me_range=16 / chroma_me=1 / trellis=1 / 8x8dct=1 / cqm=0 / deadzone=19,19 / fast_pskip=1 / chroma_qp_offset=-3 / threads=6 / lookahead_threads=1 / sliced_threads=0 / nr=0 / decimate=1 / interlaced=0 / bluray_compat=0 / constrained_intra=0 / bframes=3 / b_pyramid=2 / b_adapt=2 / b_bias=3 / direct=3 / weightb=1 / open_gop=0 / weightp=2 / keyint=240 / keyint_min=24 / scenecut=30 / intra_refresh=0 / rc_lookahead=36 / rc=2pass / mbtree=0 / bitrate=2650 / ratetol=1.0 / qcomp=1.00 / qpmin=11 / qpmax=52 / qpstep=6 / cplxblur=20.0 / qblur=0.5 / vbv_maxrate=30000 / vbv_bufsize=45000 / nal_hrd=none / filler=0 / ip_ratio=1.10 / pb_ratio=1.30 / aq=1:1.20
Default                                  : Yes
Forced                                   : No
DURATION                                 : 01:22:01.500000000
NUMBER_OF_FRAMES                         : 118116
NUMBER_OF_BYTES                          : 920541065
_STATISTICS_WRITING_APP                  : mkvmerge v8.1.0 ('Psychedelic Postcard') 32bit
_STATISTICS_WRITING_DATE_UTC             : 2015-07-31 08:25:41
_STATISTICS_TAGS                         : BPS DURATION NUMBER_OF_FRAMES NUMBER_OF_BYTES

Audio
ID                                       : 2
Format                                   : AC-3
Format/Info                              : Audio Coding 3
Mode extension                           : CM (complete main)
Codec ID                                 : A_AC3
Duration                                 : 1h 22mn
Bit rate mode                            : Constant
Bit rate                                 : 384 Kbps
Channel(s)                               : 6 channels
Channel positions                        : Front: L C R, Side: L R, LFE
Sampling rate                            : 48.0 KHz
Bit depth                                : 16 bits
Compression mode                         : Lossy
Delay relative to video                  : -83ms
Stream size                              : 225 MiB (20%)
Language                                 : Russian
Default                                  : Yes
Forced                                   : No

Menu
00:00:00.000                             : en:Глава 1
00:06:16.000                             : en:Глава 2
00:11:30.000                             : en:Глава 3
00:16:52.000                             : en:Глава 4
00:21:35.000                             : en:Глава 5
00:27:14.000                             : en:Глава 6
00:33:28.000                             : en:Глава 7
00:38:41.000                             : en:Глава 8
00:44:08.000                             : en:Глава 9
00:51:03.000                             : en:Глава 10
00:57:44.000                             : en:Глава 11
01:03:20.000                             : en:Глава 12
01:08:51.000                             : en:Глава 13
01:13:50.000                             : en:Глава 14

pb.wtf



Скачать Убрать из друзей через торрент http://pic1.kartinco.top/images/10/tlg4r.jpg Скачать фильм Убрать из друзей через торрент бесплантно в хорошем качестве Описание: Обычный вечер после школы. К скайпу влюбленных Блэр и Митча подключаются друзья - Адам, Джес, Кен и Вэл... и кто-то седьмой с ... 8 10 20
Info! Золотая раздача, скачанное не засчитывается.
Торрент: Зарегистрирован [2015-07-31 12:38] · скачан: 508 раз
Статус: √ проверено
Размер: 1.08 GB
Как cкачать? Как скачать Убрать из друзей через торрент | qTorrent

28-11-2019 20:33  

Отключить всю рекламу на сайте

31-07-2015 13:32 Убрать из друзей Скачать торрент  

мне не понравился, совсем все средненько, круглые 5.0000000000.... выключить не мог и смотреть тоже, но каким то образом тайминг подошёл к концу
а тогда логичный вопрос почему не* понравилось
т.к. слишком много шуму типо- о как не стандартно или как не обычно я в восторге.. ожидал хоть чего то...pb.wtf



31-07-2015 14:10 Убрать из друзей Скачать торрент  

ПОЛНЕЙШАЯ ЧУШЬ!!!!!!!!!!! pb.wtf



31-07-2015 14:21 Убрать из друзей Скачать торрент  

Такая чушь, так и не понял о чем.pb.wtf



31-07-2015 15:38 Убрать из друзей Скачать торрент  

Фильм не очень.pb.wtf



31-07-2015 16:08 Убрать из друзей Скачать торрент  

Самый тупой фильм в мире!Я такой же за пол часа замонтирую!pb.wtf



31-07-2015 23:31 Убрать из друзей Скачать торрент  

гениальнейшый фильм показывающий всю суть псевдо дружбы псевдолюбви и также всю суть баб что они все поголовно шлюхи режысеру респект pb.wtf



02-08-2015 22:32 Убрать из друзей Скачать торрент  

deityofjd писал(а):

гениальнейшый фильм показывающий всю суть псевдо дружбы псевдолюбви и также всю суть баб что они все поголовно шлюхи режысеру респект

Ахахахах точно точноpb.wtf



    Дорогой пользователь! Огромная просьба, поблагодарите релизера, оцените раздачу и оставьте свои комментарий, если Вы скачали Убрать из друзей через торрент бесплатно! Внесите свою лепту в развитие PiratBit!
    Комментировать посты могут только пользователи прошедшие не сложную регистрацию
    Показать сообщения:    

    Убрать из друзей через торрент
    Скачать бесплатно Убрать из друзей
    Убрать из друзей скачать торрент
    Убрать из друзей смотреть онлайн
    Cкачать фильм Убрать из друзей бесплатно
    Убрать из друзей скачать торрент в хорошем качестве
    Убрать из друзей смотреть онлайн бесплатно в хорошем качестве


    Вы не можете начинать темы
    Вы не можете отвечать на сообщения
    Вы не можете редактировать свои сообщения
    Вы не можете удалять свои сообщения
    Вы не можете голосовать в опросах
    Вы не можете прикреплять файлы к сообщениям
    Вы можете скачивать файлы