2 сезон

iTunes

1 сезон

1

iTunes

iTunes

iTunes

1 сезон

RePack

30

ИГРА 18+

pack

ВАЖНО

!!Акция!!

Alien_RageХит недели

RePack

MK11
pack

Забери бонус

RePack

jed

!!Акция!!

Alien_Rage

RePack

fifa19

RePack

Assassins Creed: Odyssey

RePack

NEED FOR SPEED™ PAYBACK

4 сезон

9 сезон

Бесстыжие 9 сезон

Все сериалы

все сериалы на PB.wtf

RePack

FAR CRY 5
  

Ликвидация (14 серий из 14) (Сергей Урсуляк) [2007 г., Детектив, HDTV 1080p Оригинал] pb.wtf

Ликвидация через торрент pb.wtf

Размер: 37.91 GB | Добавлен: 5 лет 3 мес. назад | Торрент скачан:402 раза
Скачать  

31-07-2015 13:14 Ликвидация Скачать торрент  

Ликвидация
Год выпуска: 2007
Страна: Россия
Жанр: Детектив
Продолжительность: 00:45:00
Перевод: Оригинал
Субтитры: Нет

Режиссер: Сергей Урсуляк

В ролях: Владимир Машков, Михаил Пореченков, Владимир Меньшов, Сергей Маковецкий, Андрей Краско, Светлана Крючкова, Фёдор Добронравов, Виктор Смирнов, Александр Голубев, Александр Семчев, Максим Дрозд, Олег Басилашвили, Вячеслав Ильин, Игорь Арташонов, Артём Осипов, Виктор Сарайкин, Диана Малая, Константин Лавроненко, Ксения Раппопорт, Полина Агуреева, Виктор Бунаков, Кирилл Кяро, Владимир Ровинский, Павел Ворожцов, Евгений Куршинский, Беата Маковская, Сергей Рубеко, Светлана Зубченко, Сергей Угрюмов, Лика Нифонтова, Виктор Супрун

Описание: Послевоенная Одесса, разгул преступности. В городе орудует банда бывших диверсантов во главе с загадочным Академиком, которого не знают даже свои. Бандиты грабят военные склады и пытаются переправить продовольствие, обмундирование и оружие бандеровцам. В это время недовольный Жуковым Сталин назначает его командующим Одесским округом. Маршал всеми силами пытается навести в городе порядок. На борьбу с бандитами посланы все силы, особенно старается начальник уголовного розыска Давид Гоцман. В ходе расследования выясняется, что и в милиции, и в штабе командования у бандитов свои люди, в частности, сам Академик. Жуков и Гоцман прибегают к разным методам, чтобы выйти на банду. В конце концов Гоцман осуществляет идею внедрить в ряды бандитов своего человека и приманкой вынудить их к решительным действиям, чтобы всех взять и выйти на Академика.

Качество: HDTV (1080p)
Формат: MPEG
Видео кодек: AVC
Аудио кодек: MP2
Видео: MPEG-4 AVC, (1920x1080),8800 Кбит/с, 25.000кадра/сек
Аудио#1: MP2, 2 ch,256 kbps (Rus) 48.0 KHz Оригинал
скриншот   скриншот   скриншот  

Тип потока: Видео
Длительность: 00:45:35
Кодек: AVC
Кодек/описание: Advanced Video Codec
Кодек/профиль: High@L4.0
Кодек/ID: 27
Кодек/CABAC: Yes
Кодек/ReFrames: 4 frames
Размеры изображения: 1920 x 1080 (16:9)
Частота кадров: 25.000 fps
Размер потока: 2.60 GiB (92%)
Битрейт: 8 166 Kbps
Стандарт: Component
Цветовое пространство: YUV
Тип развёртки: Interlaced
Колориметрия: 4:2:0
Глубина: 8 bits
:
Тип потока: Звук #1
Язык: Rus
Длительность: 00:45:35.280
Кодек: MPEG Audio
Кодек/профиль: Layer 2
Кодек/ID: 3
Частота дискретизации: 48.0 KHz
Каналов: 2 channels
Битрейт: 256 Kbps
Битрейт/тип: Constant
Размер потока: 83.5 MiB (3%)
Метод сжатия: Lossy

pb.wtf



Скачать Ликвидация через торрент http://pic1.kartinco.top/images/10/yh7bv.jpg Скачать фильм Ликвидация через торрент бесплантно в хорошем качестве Описание: Послевоенная Одесса, разгул преступности. В городе орудует банда бывших диверсантов во главе с загадочным Академиком, которого не ... 10 10 15
Info! Золотая раздача, скачанное не засчитывается.
Торрент: Зарегистрирован [2015-07-31 13:14] · скачан: 402 раз
Статус: √ проверено
Размер: 37.91 GB
Как cкачать? Как скачать Ликвидация через торрент | qTorrent

% Раздел Тема Автор DL S | L
Документальные фильмы и телепередачи [ 1.1 GB ] Немонтированное видео боевых действий личного состава УГПС по Калининградской области по ликвидации пожаров [2009 любительское видео TVRip] Леонид Ильич Скачать
2 | 0
Наши сериалы [ 28.62 GB ] Ликвидация / Сезон: 1 / Серии: 1-14 из 14 [2007 WEB-DL 1080p] bober100 Скачать
2 | 1
Наши сериалы [ 8.72 GB ] Ликвидация [2007 ретро- DVDRip-AVC Оригинал] wekotila Скачать
3 | 0
Наши фильмы (HD, WEB-DL 720p, 1080p) [ 8.18 GB ] Решение о ликвидации [2018 военный HDTV 1080i] [Расширенная ТВ-версия] bober100 Скачать
1 | 0
Наши новые фильмы 2018-2019 [ 2.06 GB ] Решение о ликвидации [2018 военный HDTVRip] [Расширенная ТВ-версия] bober100 Скачать
2 | 0
Наши новые фильмы 2018-2019 [ 2.04 GB ] Решение о ликвидации [2018 военный HDTVRip-AVC] [Расширенная ТВ-версия] bober100 Скачать
1 | 0
Наши фильмы (Blu-ray, BD-Remux, HDDVD) [ 19.37 GB ] Решение о ликвидации [2018 военный BD Remux 1080p] [] bober100 Скачать
1 | 0

28-11-2019 20:33  

Отключить всю рекламу на сайте

31-07-2015 17:00 Ликвидация Скачать торрент  

а 5.1 в лицензии не бывает?pb.wtf



02-08-2015 08:09 Ликвидация Скачать торрент  

Скорее 1080i чем 1080p !!!!!!!!!!!!!!!!!!!pb.wtf



07-08-2015 06:16 Ликвидация Скачать торрент  

Мой любимый сериал в фулл хд, благодарю!pb.wtf



    Дорогой пользователь! Огромная просьба, поблагодарите релизера, оцените раздачу и оставьте свои комментарий, если Вы скачали Ликвидация через торрент бесплатно! Внесите свою лепту в развитие PiratBit!
    Комментировать посты могут только пользователи прошедшие не сложную регистрацию
    Показать сообщения:    

    Ликвидация через торрент
    Скачать бесплатно Ликвидация
    Ликвидация скачать торрент
    Ликвидация смотреть онлайн
    Cкачать фильм Ликвидация бесплатно
    Ликвидация скачать торрент в хорошем качестве
    Ликвидация смотреть онлайн бесплатно в хорошем качестве


    Вы не можете начинать темы
    Вы не можете отвечать на сообщения
    Вы не можете редактировать свои сообщения
    Вы не можете удалять свои сообщения
    Вы не можете голосовать в опросах
    Вы не можете прикреплять файлы к сообщениям
    Вы можете скачивать файлы