Ссылка на приватное зеркало нашего сайта всего за 1$. Внимание количество ограничено!!!

2 сезон

iTunes

1 сезон

1

iTunes

iTunes

iTunes

1 сезон

RePack

30

ИГРА 18+

pack

ВАЖНО

!!Акция!!

Alien_RageХит недели

RePack

MK11
pack

Забери бонус

RePack

jed

!!Акция!!

Alien_Rage

RePack

fifa19

RePack

Assassins Creed: Odyssey

RePack

NEED FOR SPEED™ PAYBACK

4 сезон

9 сезон

Бесстыжие 9 сезон

Все сериалы

все сериалы на PB.wtf

RePack

FAR CRY 5
  

Люси / Lucy (Люк Бессон ) [2014, боевик, фантастика, BDRip-AVC, 60fps, Dub, Original] от R.G. HD-Films pb.wtf

Люси через торрент pb.wtf

Раздают: 2 [ 0 KB/s ]
Размер: 3.04 GB | Добавлен: 4 года 7 мес. назад | Торрент скачан:699 раз
Скачать  

31-07-2015 15:07 Люси Скачать торрент  

Люси / Lucy

Год выпуска: 2014
Страна: США, Франция
Жанр: боевик, фантастика
Продолжительность: 01:29:20
Перевод: Дубляж, Оригинальный
Субтитры: русские (Форсированные), русские (Полные), украинские (Полные), английские (Форсированные), английские (Полные), английские (Полные SDH)
Режиссер: Люк Бессон
В ролях: Скарлетт Йоханссон (Lucy), Морган Фриман (Professor Norman), Чхве Мин-сик (Mr. Jang), Амр Вакед (Pierre Del Rio), Джулиан Райнд-Татт (The Limey), Йохан Филип Асбек (Richard), Анали Типтон (Caroline), Николас Фонгфет (Jii), Ян Оливер Шрёдер (German Mule), Лука Анджелетти (Italian Mule), Луи Брабант (Professor), Пьер Граммон (Professor)
Описание:
Еще вчера она была просто сексапильной блондинкой, а сегодня - самое опасное и смертоносное создание на планете со сверхъестественными способностями и интеллектом. То, что совсем недавно лучшие умы мира считали фантастической теорией, для нее стало реальностью. И теперь из добычи она превратится в охотницу.
Ее зовут Люси...
Рейтинг:

MPAA: R - Лицам до 17 лет обязательно присутствие взрослого
Качество: BDRip-AVC 60fps
Формат: MKV
Видео: AVC, 1024x424 (2.40:1), 3600 kbps, 59,940 fps, 0,138 bpp
Аудио №1: русский / AC3 / 5.1 / 48 kHz / 640 kbps / 16 bit
Аудио №2: английский / AC3 / 5.1 / 48 kHz / 640 kbps / 16 bit
Навигация по главам: есть

General
Unique ID : 244720944847054592466602443304021847531 (0xB81B8A2141E651BEA15336675190EDEB)
Complete name : C:\Downloads\Люси BDRip-AVC 60fps R.G. HD-Films.mkv
Format : Matroska
Format version : Version 4 / Version 2
File size : 3.04 GiB
Duration : 1h 29mn
Overall bit rate : 4 878 Kbps
Movie name : Tiberiumsun69
Encoded date : UTC 2016-03-05 06:43:41
Writing application : mkvmerge v8.3.0 ('Over the Horizon') 64bit
Writing library : libebml v1.3.1 + libmatroska v1.4.2
Cover : Yes
Attachments : Cover.png

Video
ID : 1
Format : AVC
Format/Info : Advanced Video Codec
Format profile : High@L4.1
Format settings, CABAC : Yes
Format settings, ReFrames : 4 frames
Codec ID : V_MPEG4/ISO/AVC
Duration : 1h 29mn
Bit rate : 3 600 Kbps
Width : 1 024 pixels
Height : 424 pixels
Display aspect ratio : 2.40:1
Frame rate mode : Constant
Frame rate : 59.940 fps
Color space : YUV
Chroma subsampling : 4:2:0
Bit depth : 8 bits
Scan type : Progressive
Bits/(Pixel*Frame) : 0.138
Stream size : 2.18 GiB (72%)
Title : TIberiumsun69
Writing library : x264 core 146 r2538 121396c
Encoding settings : cabac=1 / ref=3 / deblock=1:0:0 / analyse=0x3:0x113 / me=umh / subme=9 / psy=1 / psy_rd=1.00:0.10 / mixed_ref=1 / me_range=32 / chroma_me=1 / trellis=2 / 8x8dct=1 / cqm=0 / deadzone=21,11 / fast_pskip=0 / chroma_qp_offset=-3 / threads=12 / lookahead_threads=3 / sliced_threads=0 / nr=0 / decimate=1 / interlaced=0 / bluray_compat=0 / constrained_intra=0 / bframes=16 / b_pyramid=2 / b_adapt=2 / b_bias=0 / direct=3 / weightb=1 / open_gop=0 / weightp=2 / keyint=250 / keyint_min=25 / scenecut=40 / intra_refresh=0 / rc_lookahead=40 / rc=2pass / mbtree=0 / bitrate=3600 / ratetol=1.0 / qcomp=0.60 / qpmin=0 / qpmax=69 / qpstep=4 / cplxblur=20.0 / qblur=0.5 / vbv_maxrate=14000 / vbv_bufsize=14000 / nal_hrd=none / filler=0 / ip_ratio=1.40 / pb_ratio=1.30 / aq=1:1.00
Language : English
Default : Yes
Forced : No

Audio #1
ID : 2
Format : AC-3
Format/Info : Audio Coding 3
Mode extension : CM (complete main)
Format settings, Endianness : Big
Codec ID : A_AC3
Duration : 1h 29mn
Bit rate mode : Constant
Bit rate : 640 Kbps
Channel(s) : 6 channels
Channel positions : Front: L C R, Side: L R, LFE
Sampling rate : 48.0 KHz
Frame rate : 31.250 fps (1536 spf)
Compression mode : Lossy
Stream size : 409 MiB (13%)
Title : Дубляж
Language : Russian
Default : Yes
Forced : No

Audio #2
ID : 3
Format : AC-3
Format/Info : Audio Coding 3
Mode extension : CM (complete main)
Format settings, Endianness : Big
Codec ID : A_AC3
Duration : 1h 29mn
Bit rate mode : Constant
Bit rate : 640 Kbps
Channel(s) : 6 channels
Channel positions : Front: L C R, Side: L R, LFE
Sampling rate : 48.0 KHz
Frame rate : 31.250 fps (1536 spf)
Compression mode : Lossy
Stream size : 409 MiB (13%)
Title : Оригинал
Language : English
Default : No
Forced : No

Text #1
ID : 4
Format : UTF-8
Codec ID : S_TEXT/UTF8
Codec ID/Info : UTF-8 Plain Text
Title : Форсированные
Language : Russian
Default : Yes
Forced : No

Text #2
ID : 5
Format : UTF-8
Codec ID : S_TEXT/UTF8
Codec ID/Info : UTF-8 Plain Text
Title : Полные
Language : Russian
Default : No
Forced : No

Text #3
ID : 6
Format : UTF-8
Codec ID : S_TEXT/UTF8
Codec ID/Info : UTF-8 Plain Text
Title : Полные
Language : Ukrainian
Default : No
Forced : No

Text #4
ID : 7
Format : UTF-8
Codec ID : S_TEXT/UTF8
Codec ID/Info : UTF-8 Plain Text
Title : Форсированные
Language : English
Default : No
Forced : No

Text #5
ID : 8
Format : UTF-8
Codec ID : S_TEXT/UTF8
Codec ID/Info : UTF-8 Plain Text
Title : Полные
Language : English
Default : No
Forced : No

Text #6
ID : 9
Format : UTF-8
Codec ID : S_TEXT/UTF8
Codec ID/Info : UTF-8 Plain Text
Title : Полные SDH
Language : English
Default : No
Forced : No

Menu
00:00:00.000 : :Chapter 01
00:05:26.367 : :Chapter 02
00:08:38.267 : :Chapter 03
00:15:45.903 : :Chapter 04
00:21:36.295 : :Chapter 05
00:26:05.397 : :Chapter 06
00:30:27.534 : :Chapter 07
00:37:36.254 : :Chapter 08
00:41:43.459 : :Chapter 09
00:47:32.558 : :Chapter 10
00:50:10.716 : :Chapter 11
00:55:32.495 : :Chapter 12
00:59:36.072 : :Chapter 13
01:02:08.099 : :Chapter 14
01:04:51.345 : :Chapter 15
01:07:14.030 : :Chapter 16
01:09:55.816 : :Chapter 17
01:12:26.133 : :Chapter 18
01:18:50.600 : :Chapter 19
01:22:31.571 : :Chapter 20
01:29:20.146 : :Chapter 21
Просьба к переливающим на другие сайты, в оформлении указывайте пожалуйста авторство группы Видео полностью обновлено.Намного меньше искажений и мыла. 05.03.2016 Авторская группа в ВК
pb.wtf



Скачать Люси через торрент http://i73.fastpic.ru/big/2016/0305/a3/e8001800fe1bf8b1b1ae45ca2eb8ffa3.png Скачать фильм Люси через торрент бесплантно в хорошем качестве Описание: Еще вчера она была просто сексапильной блондинкой, а сегодня - самое опасное и смертоносное создание на планете со ... 9.4 10 34
Info! Золотая раздача, скачанное не засчитывается.
Торрент: Зарегистрирован [2016-03-05 06:55] · скачан: 699 раз
Статус: √ проверено
Размер: 3.04 GB
Как cкачать? Как скачать Люси через торрент | qTorrent

% Раздел Тема Автор DL S | L
Фильмы (HD 720p, 1080p) (48-60 fps) [ 11.75 GB ] Люси / Lucy [2014 BDRip 1080p 60fps Dub Original] от R.G. HD-Films СидБот60fps Скачать
5 | 0
Фильмы (HD 720p, 1080p) (48-60 fps) [ 4.53 GB ] Люси / Lucy [2014 BDRip 720p 60fps Dub Original] от R.G. HD-Films Tiberiumsun69 Скачать
14 | 0


Последний раз редактировалось: Tiberiumsun69 (2018-02-09 08:14), всего редактировалось 6 раз(а)

28-11-2019 20:33  

Отключить всю рекламу на сайте

31-07-2015 16:48 Люси Скачать торрент  

4 раз буду смотреть ...кинотеатр, 2 уже глянул после и 60 фпс не пропущу !pb.wtf



31-07-2015 18:22 Люси Скачать торрент  

у меня от 60 ФПС крыша едет, то картинка кажется слишком быстрой то не вижу на чем акцентирована сцена даже если перс. прямо по середине, как то так, или так только у меня ? правда больше 5 минут не выдерживал, может подольше посмотреть мозги привыкнут ?pb.wtf



31-07-2015 20:22 Люси Скачать торрент  

Я читаю книги на скорости 500 слов в минуту. Для меня 60 fps это вообще пустяк)) По мне так, все фильмы должны быть в таком формате.pb.wtf



31-07-2015 20:31 Люси Скачать торрент  

пересмотрел еще раз!)pb.wtf



01-08-2015 01:19 Люси Скачать торрент  

Фильм обалденный.Скромный , но обалденный.

P.S. Добавил в свою фильмотеку.pb.wtf



05-03-2016 07:16 Люси Скачать торрент  

Спецэффекты оболденные,а фильм непонял про что.pb.wtf



10-03-2016 07:45 Люси Скачать торрент  

Спасибо Огромное за труды!!!pb.wtf



13-03-2016 06:14 Люси Скачать торрент  

"Видео полностью обновлено.Намного меньше искажений и мыла. 05.03.2016"
Качество действительно еще лучше!
Все остальные будешь переделывать или выборочно?pb.wtf



13-03-2016 06:18 Люси Скачать торрент  

михакруг, буду обновлять все.Каждый фильм или мультфильм будет в 3-х форматах BDrip-AVC 720p и 1080p.pb.wtf



    Дорогой пользователь! Огромная просьба, поблагодарите релизера, оцените раздачу и оставьте свои комментарий, если Вы скачали Люси через торрент бесплатно! Внесите свою лепту в развитие PiratBit!
    Комментировать посты могут только пользователи прошедшие не сложную регистрацию
    Показать сообщения:    

    Люси через торрент
    Скачать бесплатно Люси
    Люси скачать торрент
    Люси смотреть онлайн
    Cкачать фильм Люси бесплатно
    Люси скачать торрент в хорошем качестве
    Люси смотреть онлайн бесплатно в хорошем качестве


    Вы не можете начинать темы
    Вы не можете отвечать на сообщения
    Вы не можете редактировать свои сообщения
    Вы не можете удалять свои сообщения
    Вы не можете голосовать в опросах
    Вы не можете прикреплять файлы к сообщениям
    Вы можете скачивать файлы