Ссылка на приватное зеркало нашего сайта всего за 1$. Внимание количество ограничено!!!

2 сезон

iTunes

1 сезон

1

iTunes

iTunes

iTunes

1 сезон

RePack

30

ИГРА 18+

pack

ВАЖНО

!!Акция!!

Alien_RageХит недели

RePack

MK11
pack

Забери бонус

RePack

jed

!!Акция!!

Alien_Rage

RePack

fifa19

RePack

Assassins Creed: Odyssey

RePack

NEED FOR SPEED™ PAYBACK

4 сезон

9 сезон

Бесстыжие 9 сезон

Все сериалы

все сериалы на PB.wtf

RePack

FAR CRY 5
  

Посланник / The Messenger (Орен Моверман / Oren Moverman) [2009, драма, мелодрама, военный, BDRip 720p] MVO, AVO (Сербин) pb.wtf

Посланник через торрент pb.wtf

Размер: 5.16 GB | Добавлен: 5 лет 2 мес. назад | Торрент скачан:141 раз
Скачать  

31-07-2015 15:55 Посланник Скачать торрент  

Посланник / The Messenger
«Эта сторона войны всегда была закрыта для посторонних глаз»


Год выпуска: 2009
Страна: США
Жанр: драма, мелодрама, военный
Продолжительность: 01:52:54
Перевод: Профессиональный многоголосый, Авторский (одноголосый)
Субтитры: русские, английские
Режиссер: Орен Моверман
В ролях: Бен Фостер , Вуди Харрельсон , Саманта Мортон , Джена Мэлоун , Стив Бушеми , Имонн Уолкер , Йайа ДаКоста , Портия , Лиза Джойс , Питер Френсис Джеймс , Пол Диомед , Джамир Дюран-Абро
Описание:
Обязанности сержанта армии Соединенных Штатов Уилла Монтгомери просты и печальны - он должен лично сообщать жёнам погибших солдат о том, что их мужья не вернутся с фронта живыми. Сложно представить этическую дилемму «посланника смерти», ведь у сержанта Монтгомери появились чувства к одной из солдатских вдов.

Две номинации на премию «Оскар»

R - Лицам до 17 лет обязательно присутствие взрослого
Качество: BDRip 720p
Контейнер (Расширение): MKV
Видео кодек: AVC
Аудио кодек: AC3
Видео: 1280x544, 4813 Кбит/сек, 23,976 кадр/сек, 0,288 Бит/[Пиксели*Кадры]
Аудио №1: русский / AC3 / 5.1 / 48 kHz / 640 kbps / 16 bit |Авторский, Ю.Сербин|
Аудио №2: русский / AC3 / 5.1 / 48 kHz / 448 kbps / 16 bit |Профессиональный многоголосый|
Аудио №3: английский / AC3 / 5.1 / 48 kHz / 640 kbps / 16 bit
Навигация по главам(Чаптеры): есть (подписанные)
Видеоряд EbPРелиз от: Сообщество:
  • В различные моменты на ранних стадиях производства проекта место режиссера закреплялось за Сидни Поллаком, Роджером Мичеллом и Беном Аффлеком. После того как каждый из них по разным причинам отказался от работы над ним, продюсеры неожиданно предложили заняться постановкой картины одному из соавторов сценария Орену Моверману.
  • Роль капитана Тони Стоуна могла достаться Доминику Уэсту.
  • Код:

    Format                                   : Matroska
    Format version                           : Version 2
    File size                                : 5.16 GiB
    Duration                                 : 1h 52mn
    Overall bit rate                         : 6 539 Kbps
    Movie name                               : Poslannik.(2009).BDRip.720p.[denis100]
    Encoded date                             : UTC 2015-07-31 15:18:44
    Writing application                      : mkvmerge v5.8.0 ('No Sleep / Pillow') built on Sep  2 2012 15:37:04
    Writing library                          : libebml v1.2.3 + libmatroska v1.3.0

    Video
    ID                                       : 1
    Format                                   : AVC
    Format/Info                              : Advanced Video Codec
    Format profile                           : High@L4.1
    Format settings, CABAC                   : Yes
    Format settings, ReFrames                : 8 frames
    Codec ID                                 : V_MPEG4/ISO/AVC
    Duration                                 : 1h 52mn
    Bit rate                                 : 4 813 Kbps
    Width                                    : 1 280 pixels
    Height                                   : 544 pixels
    Display aspect ratio                     : 2.35:1
    Frame rate                               : 23.976 fps
    Color space                              : YUV
    Chroma subsampling                       : 4:2:0
    Bit depth                                : 8 bits
    Scan type                                : Progressive
    Bits/(Pixel*Frame)                       : 0.288
    Stream size                              : 3.69 GiB (72%)
    Title                                    : Poslannik.(2009).BDRip.720p.[denis100]
    Writing library                          : x264 core 94 r1583 7608d73
    Encoding settings                        : cabac=1 / ref=8 / deblock=1:-3:-3 / analyse=0x3:0x113 / me=tesa / subme=10 / psy=1 / psy_rd=0.95:0.00 / mixed_ref=1 / me_range=16 / chroma_me=1 / trellis=2 / 8x8dct=1 / cqm=0 / deadzone=21,11 / fast_pskip=0 / chroma_qp_offset=-2 / threads=12 / sliced_threads=0 / nr=0 / decimate=0 / interlaced=0 / constrained_intra=0 / bframes=7 / b_pyramid=2 / b_adapt=2 / b_bias=0 / direct=3 / weightb=1 / weightp=2 / keyint=250 / keyint_min=25 / scenecut=40 / intra_refresh=0 / rc=2pass / mbtree=0 / bitrate=4813 / ratetol=1.0 / qcomp=0.60 / qpmin=10 / qpmax=51 / qpstep=4 / cplxblur=20.0 / qblur=0.5 / ip_ratio=1.40 / pb_ratio=1.30 / aq=1:0.75
    Language                                 : English
    Default                                  : No
    Forced                                   : No

    Audio #1
    ID                                       : 2
    Format                                   : AC-3
    Format/Info                              : Audio Coding 3
    Mode extension                           : CM (complete main)
    Codec ID                                 : A_AC3
    Duration                                 : 1h 52mn
    Bit rate mode                            : Constant
    Bit rate                                 : 640 Kbps
    Channel(s)                               : 6 channels
    Channel positions                        : Front: L C R, Side: L R, LFE
    Sampling rate                            : 48.0 KHz
    Bit depth                                : 16 bits
    Compression mode                         : Lossy
    Stream size                              : 517 MiB (10%)
    Title                                    : Авторский,  Ю.Сербин
    Language                                 : Russian
    Default                                  : Yes
    Forced                                   : No

    Audio #2
    ID                                       : 3
    Format                                   : AC-3
    Format/Info                              : Audio Coding 3
    Mode extension                           : CM (complete main)
    Codec ID                                 : A_AC3
    Duration                                 : 1h 52mn
    Bit rate mode                            : Constant
    Bit rate                                 : 448 Kbps
    Channel(s)                               : 6 channels
    Channel positions                        : Front: L C R, Side: L R, LFE
    Sampling rate                            : 48.0 KHz
    Bit depth                                : 16 bits
    Compression mode                         : Lossy
    Stream size                              : 362 MiB (7%)
    Title                                    : Профессиональный многоголосый
    Language                                 : Russian
    Default                                  : No
    Forced                                   : No

    Audio #3
    ID                                       : 4
    Format                                   : AC-3
    Format/Info                              : Audio Coding 3
    Mode extension                           : CM (complete main)
    Codec ID                                 : A_AC3
    Duration                                 : 1h 52mn
    Bit rate mode                            : Constant
    Bit rate                                 : 640 Kbps
    Channel(s)                               : 6 channels
    Channel positions                        : Front: L C R, Side: L R, LFE
    Sampling rate                            : 48.0 KHz
    Bit depth                                : 16 bits
    Compression mode                         : Lossy
    Stream size                              : 517 MiB (10%)
    Language                                 : English
    Default                                  : No
    Forced                                   : No

    Text #1
    ID                                       : 5
    Format                                   : UTF-8
    Codec ID                                 : S_TEXT/UTF8
    Codec ID/Info                            : UTF-8 Plain Text
    Language                                 : Russian
    Default                                  : No
    Forced                                   : No

    Text #2
    ID                                       : 6
    Format                                   : UTF-8
    Codec ID                                 : S_TEXT/UTF8
    Codec ID/Info                            : UTF-8 Plain Text
    Language                                 : English
    Default                                  : No
    Forced                                   : No

    Menu
    00:00:00.000                             : :1. Kelly
    00:05:24.615                             : :2. Men of Solid Stature
    00:12:00.136                             : :3. Private First Class Leroy Burrell
    00:18:46.792                             : :4. "I Got My Baptism Too"
    00:25:29.903                             : :5. Specialist Eric Martin
    00:33:54.073                             : :6. Phil
    00:39:13.225                             : :7. Ice, Hot Water, Lemon
    00:42:32.091                             : :8. Olivia and Will
    00:47:31.431                             : :9. Corporal Mario Galindo
    00:54:47.450                             : :10. Private Patricia Vasquez
    00:59:16.094                             : :11. Pizza and Broccoli
    01:04:25.278                             : :12. Widow's Story
    01:12:41.899                             : :13. Walton Flanigan
    01:18:24.199                             : :14. R & R
    01:24:28.521                             : :15. Crashing the Party
    01:33:47.288                             : :16. Will In Iraq
    01:43:41.006                             : :17. "I'll Write You a Letter"
    01:47:10.006                             : :18. End Credits

    pb.wtf



    Скачать Посланник через торрент http://i71.fastpic.ru/big/2015/0731/48/37730e2b8c44b7d6201e6678499daf48.png Скачать фильм Посланник через торрент бесплантно в хорошем качестве Описание:Обязанности сержанта армии Соединенных Штатов Уилла Монтгомери просты и печальны - он должен лично сообщать жёнам погибших солдат ... 10 10 7
    Info! Золотая раздача, скачанное не засчитывается.
    Торрент: Зарегистрирован [2015-07-31 15:55] · скачан: 141 раз
    Статус: √ проверено
    Размер: 5.16 GB
    Как cкачать? Как скачать Посланник через торрент | qTorrent

    % Раздел Тема Автор DL S | L
    Зарубежные сериалы [ 12.01 GB ] Пристрелите посланника / Shoot the Messenger / Сезон: 1 / Серии: 1-8 из 8 [2016 WEB-DL 720p] MVO [Jaskier] bober100 Скачать
    1 | 0
    Зарубежные сериалы [ 14.84 GB ] Пристрелите посланника / Shoot the Messenger / Сезон: 1 / Серии: 1-8 из 8 [2016 WEB-DL 1080p] MVO [Jaskier] bober100 Скачать
    1 | 0
    Зарубежные сериалы [ 4.3 GB ] Пристрелите посланника / Shoot the Messenger / Сезон: 1 / Серии: 1-8 из 8 [2016 WEB-DLRip] MVO [Jaskier] bober100 Скачать
    1 | 0
    Зарубежные сериалы [ 3.34 GB ] Пристрелите посланника / Shoot the Messenger / 1 сезон / 1-8 из 8 [2016 WEB-DLRip/HDTVRip] DVO [ColdFilm] bober100 Скачать
    1 | 0
    Фильмы [HD 720p, 1080p] (Хороший звук DUB, MVO) [ 7.73 GB ] Посланники / The Messengers [2007 BDRip 1080p от еnvy / NNNB] DUB DVO AVO еnvy Скачать
    2 | 1
    Зарубежные сериалы [ 2.41 GB ] Пристрелите посланника / Shoot the Messenger / Сезон: 1 / Серии 1-3 из 8 [2016 WEB-DLRip-AVC] MVO [BaibaKo] GEKADOL Скачать
    1 | 0
    Фильмы 2009 [ 1.46 GB ] Посланник / The Messenger [2009 военный BDRip-AVC] MVO [] potroks Скачать
    1 | 0

    28-11-2019 20:33  

    Отключить всю рекламу на сайте

    31-07-2015 16:15 Посланник Скачать торрент  

    сильная картина. рекомендую...pb.wtf



      Дорогой пользователь! Огромная просьба, поблагодарите релизера, оцените раздачу и оставьте свои комментарий, если Вы скачали Посланник через торрент бесплатно! Внесите свою лепту в развитие PiratBit!
      Комментировать посты могут только пользователи прошедшие не сложную регистрацию
      Показать сообщения:    

      Посланник через торрент
      Скачать бесплатно Посланник
      Посланник скачать торрент
      Посланник смотреть онлайн
      Cкачать фильм Посланник бесплатно
      Посланник скачать торрент в хорошем качестве
      Посланник смотреть онлайн бесплатно в хорошем качестве


      Вы не можете начинать темы
      Вы не можете отвечать на сообщения
      Вы не можете редактировать свои сообщения
      Вы не можете удалять свои сообщения
      Вы не можете голосовать в опросах
      Вы не можете прикреплять файлы к сообщениям
      Вы можете скачивать файлы