2 сезон

iTunes

MVO

1

2 сезон

iTunes

iTunes

1 сезон

RePack

30

Ultimate

ВАЖНО

ИГРА 18+

pack

RePack

MK11
pack

Легкие деньги

RePack

jed

RePack

fifa19

RePack

RDR2

RePack

NEED FOR SPEED™ PAYBACK

4 сезон

9 сезон

Бесстыжие 9 сезон

Все сериалы

все сериалы на PB.wtf

RePack

FAR CRY 5

Anonymous, доброе утро, мы не успеваем собрать деньги на оплату серверов за декабрь и январь, помогите нам пожалуйста в это трудное время. В качестве благодарности мы отключим Вам всю рекламу на сайте (укажите свой ник в строку Ваше имя)!

×
  
Magnet ссылка

Фанни / Fanny (Даниель Отой) [2013, драма, HDRip] MVO - Лицензия pb.wtf

Фанни через торрент pb.wtf

Размер: 1.37 GB | Добавлен: 5 лет 5 мес. назад | Торрент скачан:65 раз
Скачать  

31-07-2015 21:23 Фанни Скачать торрент  

Фанни / Fanny

Год выпуска: 2013
Страна: Франция
Жанр: драма
Продолжительность: 01:41:57
Перевод: Профессиональный многоголосый [Лицензия]
Режиссер: Даниель Отой
В ролях: Даниель Отой (César), Виктуар Безези (Fanny), Жан-Пьер Дарруссен (Panisse), Рафаэль Персонас (Marius), Мари-Анн Шазель (Honorine), Николас Вод (M. Brun), Даниэль Руссо (Escartefigue), Ариан Аскарид (Claudine), Жан-Луи Барселона (Frisepoulet), Жорж Нери (Elzéar), Martine Diotalevi (Madame Escartefigue), Роже Суза (Le commis)
Описание:
Влюбленная и покинутая Фанни узнает, что она ждет ребенка от Мариуса. Она неспособна обеспечить как будушее ребенка, так и свое собственное и принимает предложение выйти замуж за состоятельного коммерсанта, который на 30 лет старше, чем она. Он признает ребенка и воспитывает его как своего собственного, а также обеспечивает социальное признание и комфортное будущее. Мариус через несколько месяцев после свадьбы понимает, что любит Фанни...

Качество: HDRip
Формат: AVI
Видео кодек: XviD
Аудио кодек: AC3
Видео: XviD, 720x384 (1.875), 1718 kbps, 24 fps, 0,259 bpp
Аудио: AC3 / 2.0 / 48 kHz / 192 kbps / 16 bit

Код:

General
Complete name                            : E:\торент\Fanni.2013.P.HDRip.avi
Format                                   : AVI
Format/Info                              : Audio Video Interleave
File size                                : 1.37 GiB
Duration                                 : 1h 41mn
Overall bit rate                         : 1 920 Kbps
Writing application                      : VirtualDubMod 1.5.10.2 (build 2540/release)
Writing library                          : VirtualDubMod build 2540/release

Video
ID                                       : 0
Format                                   : MPEG-4 Visual
Format profile                           : Advanced Simple@L5
Format settings, BVOP                    : 2
Format settings, QPel                    : No
Format settings, GMC                     : No warppoints
Format settings, Matrix                  : Default (MPEG)
Codec ID                                 : XVID
Codec ID/Hint                            : XviD
Duration                                 : 1h 41mn
Bit rate                                 : 1 718 Kbps
Width                                    : 720 pixels
Height                                   : 384 pixels
Display aspect ratio                     : 1.875
Frame rate                               : 24.000 fps
Color space                              : YUV
Chroma subsampling                       : 4:2:0
Bit depth                                : 8 bits
Scan type                                : Progressive
Compression mode                         : Lossy
Bits/(Pixel*Frame)                       : 0.259
Stream size                              : 1.22 GiB (90%)
Writing library                          : XviD 1.2.1 (UTC 2008-12-04)

Audio
ID                                       : 1
Format                                   : AC-3
Format/Info                              : Audio Coding 3
Mode extension                           : CM (complete main)
Codec ID                                 : 2000
Duration                                 : 1h 41mn
Bit rate mode                            : Constant
Bit rate                                 : 192 Kbps
Channel(s)                               : 2 channels
Channel positions                        : Front: L R
Sampling rate                            : 48.0 KHz
Bit depth                                : 16 bits
Compression mode                         : Lossy
Stream size                              : 140 MiB (10%)
Alignment                                : Split accross interleaves
Interleave, duration                     : 42 ms (1.00 video frame)
Interleave, preload duration             : 500 ms

pb.wtf



Скачать Фанни через торрент https://pic1.kartinco.top/images/10/gtl71.jpg Скачать фильм Фанни через торрент бесплантно в хорошем качестве Описание: Влюбленная и покинутая Фанни узнает, что она ждет ребенка от Мариуса. Она неспособна обеспечить как будушее ребенка, так и свое ... 10 10 6
Торрент: Зарегистрирован [2015-07-31 21:23] · скачан: 65 раз
Статус: √ проверено
Размер: 1.37 GB
Как cкачать? Как скачать Фанни через торрент | UTorrent

28-11-2019 20:33  

Отключить всю рекламу на сайте

    Дорогой пользователь! Огромная просьба, поблагодарите релизера, оцените раздачу и оставьте свои комментарий, если Вы скачали Фанни через торрент бесплатно! Внесите свою лепту в развитие PiratBit!
    Комментировать посты могут только пользователи прошедшие не сложную регистрацию
    Показать сообщения:    

    Фанни через торрент
    Скачать бесплатно Фанни
    Фанни скачать торрент
    Фанни смотреть онлайн
    Cкачать фильм Фанни бесплатно
    Фанни скачать торрент в хорошем качестве
    Фанни смотреть онлайн бесплатно в хорошем качестве


    Вы не можете начинать темы
    Вы не можете отвечать на сообщения
    Вы не можете редактировать свои сообщения
    Вы не можете удалять свои сообщения
    Вы не можете голосовать в опросах
    Вы не можете прикреплять файлы к сообщениям
    Вы можете скачивать файлы