новый адрес
Мега распродажа FORZA HORIZON 4 ULTIMATE+ВСЕ DLC+ОНЛАЙН всего за 499р. 349 руб. (супер цена). Внимание количество ограничено!!!

iTunes

1+1

iTunes

мы

iTunes

1

iTunes

Чернобыль

iTunes

Ральф против интернета

Лицензия

ПШазам

Лицензия

Оно 2

Лицензия

30
pack

ВАЖНО

!!Акция!!

Alien_RageХит недели

RePack

Resident Evil 21

ИГРА 18+

pack

RePack

jed

!!Акция!!

Alien_Rage

RePack

fifa19

RePack

Assassins Creed: Odyssey

RePack

NEED FOR SPEED™ PAYBACK

3 сезон

9 сезон

Бесстыжие 9 сезон

Все сериалы

все сериалы на PB.wtf

RePack

FAR CRY 5
Ребята, катастрофически не хватает 1900р. для оплаты серверов за Октябрь (всвязи с блокировками трафик упал в 3 раза), 1-2р., выручайте.
  

Мичурин (Александр Довженко) [1948, СССР, биография, исторический фильм, DVDRip от AVP Studio] pb.wtf

Мичурин через торрент pb.wtf

Размер: 1.46 GB | Добавлен: 4 года 3 мес. назад | Торрент скачан:6 раз
Скачать  

31-07-2015 21:45 Мичурин Скачать торрент  

Мичурин
Страна: СССР
Производство: Мосфильм

Жанр: биография, исторический фильм
Год выпуска: 1948
Продолжительность: 01:34:28

Перевод: Не требуется
Cубтитры: нет
Оригинальная аудиодорожка: русский

Режиссер: Александр Довженко

В ролях:
Григорий Белов, Владимир Соловьев, А.Васильева, Николай Шамин, Ф.Григорьев, Михаил Жаров, Константин Нассонов, Алексей Жильцов, Иван Назаров, Виктор Хохряков, Дмитрий Дубов, Геннадий Печников, Сергей Ценин, Юрий Любимов, В. Исаев, Иван Каширин...

Описание:
Фильм о выдающемся русском селекционере Иване Владимировиче Мичурине. Труд его был настоящим подвигом. Большую часть жизни спутником великого ученого была ужасающая нищета. Долгие годы ученый и его семья вынуждены были жить впроголодь. Мичурин почти безвыездно жил в Козлове, уездном городе Тамбовской губернии. Когда же американцы предложили ему продать свои коллекции и перебраться в США, где ему гарантировали все условия для научной деятельности, он решительно ответил «нет». Фильм четко делится на две половины: предреволюционную и послереволюционную. До революции скромный железнодорожный служащий терпел нужду, в одиночку боролся с природой на своем приусадебном участке, безуспешно пытаясь добиться поддержки правительства. После революции селекционер-самоучка получил неожиданную поддержку революционного правительства, стал в одночасье национальным героем. Он получает орден Ленина, выступает перед молодежью, которая боготворит его. В его честь переименовывается город Козлов...

Источник: DVD5 R5
Качество видео: DVDRip
Формат видео: AVI
Видео кодек: XviD
Аудио кодек: AC3
Видео: 688x512 (4:3), 25 fps, XviD ~ 2009 kbps avg, 0.228 bit/pixel
Аудио: 48 kHz, Dolby Digital AC3 2.0, 192 kbps

Раздача от:
Общее
Полное имя : Michurin.1948.DVDRip_[New-team]_by_AVP_Studio.avi
Формат : AVI
Формат/Информация : Audio Video Interleave
Размер файла : 1,46 Гбайт
Продолжительность : 1 ч. 34 м.
Общий поток : 2211 Кбит/сек
Программа кодирования : VirtualDubMod 1.5.10.3 | www.virtualdub-fr.org || (build 2550/release)
Библиотека кодирования : VirtualDubMod build 2550/release

Видео
Идентификатор : 0
Формат : MPEG-4 Visual
Профиль формата : Advanced Simple@L5
Параметр BVOP формата : 1
Параметр QPel формата : Нет
Параметр GMC формата : Без точки перехода
Параметр матрицы формата : Выборочная
Идентификатор кодека : XVID
Идентификатор кодека/Подсказка : XviD
Продолжительность : 1 ч. 34 м.
Битрейт : 2009 Кбит/сек
Ширина : 688 пикселей
Высота : 512 пикселей
Соотношение сторон : 4:3
Частота кадров : 25,000 кадров/сек
Цветовое пространство : YUV
Субдискретизация насыщенности : 4:2:0
Битовая глубина : 8 бит
Тип развёртки : Прогрессивная
Метод сжатия : С потерями
Бит/(Пиксели*Кадры) : 0.228
Размер потока : 1,33 Гбайт (91%)
Библиотека кодирования : XviD 73

Аудио
Идентификатор : 1
Формат : AC-3
Формат/Информация : Audio Coding 3
Расширение режима : CM (complete main)
Параметр Endianness формата : Big
Идентификатор кодека : 2000
Продолжительность : 1 ч. 34 м.
Вид битрейта : Постоянный
Битрейт : 192 Кбит/сек
Каналы : 2 канала
Расположение каналов : Front: L R
Частота : 48,0 КГц
Метод сжатия : С потерями
Размер потока : 130 Мбайт (9%)
Выравнивание : Разделение по промежуткам
Продолжительность промежутка : 40 мс. (1,00 видеокадр)
Время предзагрузки промежутка : 500 мс
pb.wtf



Скачать Мичурин через торрент http://s019.radikal.ru/i603/1507/6b/7af2fae9b6de.png Скачать фильм Мичурин через торрент бесплантно в хорошем качестве Описание:Фильм о выдающемся русском селекционере Иване Владимировиче Мичурине. Труд его был настоящим подвигом. Большую часть жизни ... 10 10 1
Торрент: Зарегистрирован [2015-07-31 21:45] · скачан: 6 раз
Статус: √ проверено
Размер: 1.46 GB
Как cкачать? Как скачать Мичурин через торрент | qTorrent

% Раздел Тема Автор DL S | L
Фантастика [ 617 MB ] Мичурин Артём Хватов Вячеслав - Еда и патроны-4. Полведра студёной крови MP3 sahambar Скачать
1 | 0
Кино СССР [ 1.46 GB ] Мичурин [1948 СССР биография исторический фильм DVDRip-AVC от AVP Studio] AVP Studio Скачать
1 | 0
Кино СССР [ 746 MB ] Мичурин [1948 СССР биография исторический фильм DVDRip от AVP Studio] AVP Studio Скачать
1 | 0
Фантастика [ 643 MB ] Мичурин Артём - Еда и патроны 3. Песни мёртвых соловьев [Андрей Кравец 2015 128 kbps MP3] govoryn Скачать
1 | 0
Фантастика [ 1.1 GB ] Артем Мичурин - Еда и патроны 2. Ренегат. [Хазанович Дмитрий 2013 192 kbps MP3] Энитан Скачать
1 | 0
Фантастика [ 562 MB ] Артем Мичурин - Еда и патроны [mike555 2013 128 kbps MP3] Энитан Скачать
1 | 0
Наши мультфильмы [ 10 MB ] Паучок [1994 Мультфильм DVDRip] Lenusik995 Скачать
1 | 0


>> Регистрируемся здесь <<






Отзывы и комментарии о схеме читаем и пишем здесь: ---> Отзывы и комментарии о схеме

Новые благодарочки в телеграм довольных пользователей:
скриншот   скриншот   скриншот   скриншот   скриншот
    Дорогой пользователь! Огромная просьба, поблагодарите релизера, оцените раздачу и оставьте свои комментарий, если Вы скачали Мичурин через торрент бесплатно! Внесите свою лепту в развитие PiratBit!
    Комментировать посты могут только пользователи прошедшие не сложную регистрацию
    Показать сообщения:    

    Мичурин через торрент
    Скачать бесплатно Мичурин
    Мичурин скачать торрент
    Мичурин смотреть онлайн
    Cкачать фильм Мичурин бесплатно
    Мичурин скачать торрент в хорошем качестве
    Мичурин смотреть онлайн бесплатно в хорошем качестве


    Вы не можете начинать темы
    Вы не можете отвечать на сообщения
    Вы не можете редактировать свои сообщения
    Вы не можете удалять свои сообщения
    Вы не можете голосовать в опросах
    Вы не можете прикреплять файлы к сообщениям
    Вы можете скачивать файлы