Ссылка на приватное зеркало всего за 1$. Внимание количество ограничено!!!

OK

1+1

iTunes

мы

OK

1

WEB-DLRip

Джокер

Пифагор

Ведьмак / The Witcher сериал

Лицензия

ПШазам

ОК

Оно 2

iTunes

30
pack

Вам бонус

ВАЖНО

!!Акция!!

Alien_RageХит недели

RePack

Resident Evil 21

ИГРА 18+

pack

RePack

jed

!!Акция!!

Alien_Rage

RePack

fifa19

RePack

Assassins Creed: Odyssey

RePack

NEED FOR SPEED™ PAYBACK

4 сезон

9 сезон

Бесстыжие 9 сезон

Все сериалы

все сериалы на PB.wtf

RePack

FAR CRY 5
  

Холодное торжество / Frozen Fever (Крис Бак / Chris Buck, Дженнифер Ли / Jennifer Lee) [2015, США, мультфильм, короткометражка, фэнтези, BDRip 1080p, Дубляж - [Звук с TS] pb.wtf

Холодное торжество через торрент pb.wtf

Размер: 661 MB | Добавлен: 4 года 5 мес. назад | Торрент скачан:713 раз
Скачать  

01-08-2015 02:47 Холодное торжество Скачать торрент  

Холодное торжество / Frozen Fever


  • Год выпуска: 2015
  • Страна: США
  • Жанр: мультфильм, короткометражка, фэнтези, комедия, приключения
  • Продолжительность: 00:07:57
  • Перевод: Дубляж - [Звук с TS]

  • Режиссер: Крис Бак / Chris Buck, Дженнифер Ли / Jennifer Lee
  • В ролях:

    Кристен Белл (Anna, озвучка), Идина Мензел (Elsa, озвучка), Джош Гад (Olaf, озвучка), Джонатан Грофф (Kristoff, озвучка), Сантино Фонтана (Hans, озвучка), Крис Уильямс (Oaken, озвучка), Пол Бриггс (Marshmallow, озвучка)

  • Описание:
    В день рождения Анны, Эльза и Кристофф полны решимости подарить ей лучший праздник, сделанный когда-либо, но ледяные силы Эльзы могут принести больше вреда, чем организация праздника.
  • Рейтинг:



  • Качество: BDRip 1080p
  • Формат: :MKV
  • Видео кодек: AVC
  • Аудио кодек: AC3
  • Видео: 1920x856 (2.25:1), 10733 kbps, 23,976 fps, 0,272 bpp
  • Аудио №1: русский / 2.0 / 48 kHz / 192 kbps / 16 bit
  • Аудио №2: английский / 5.1 / 48 kHz / 448 kbps / 16 bit
  • Релиз от: GEKADOL

    Код:

    General
    Unique ID                                : 193622544959964628636401409577493360837 (0x91AA588169BBAECFA1AA09BBA4DE70C5)
    Complete name                            : F:\Frozen.Fever.2015.Dt.Eng.1080p.BluRay.x264.mkv
    Format                                   : Matroska
    Format version                           : Version 4 / Version 2
    File size                                : 661 MiB
    Duration                                 : 7mn 57s
    Overall bit rate                         : 11.6 Mbps
    Encoded date                             : UTC 2015-07-31 19:23:46
    Writing application                      : mkvmerge v8.1.0 ('Psychedelic Postcard') 32bit
    Writing library                          : libebml v1.3.1 + libmatroska v1.4.2
    DURATION                                 : 00:07:57.504000000
    NUMBER_OF_FRAMES                         : 14922
    NUMBER_OF_BYTES                          : 26740224
    _STATISTICS_WRITING_APP                  : mkvmerge v8.1.0 ('Psychedelic Postcard') 32bit
    _STATISTICS_WRITING_DATE_UTC             : 2015-07-31 19:23:46
    _STATISTICS_TAGS                         : BPS DURATION NUMBER_OF_FRAMES NUMBER_OF_BYTES

    Video
    ID                                       : 1
    Format                                   : AVC
    Format/Info                              : Advanced Video Codec
    Format profile                           : High@L4.1
    Format settings, CABAC                   : Yes
    Format settings, ReFrames                : 4 frames
    Codec ID                                 : V_MPEG4/ISO/AVC
    Duration                                 : 7mn 57s
    Bit rate                                 : 10.7 Mbps
    Nominal bit rate                         : 11.5 Mbps
    Width                                    : 1 920 pixels
    Height                                   : 856 pixels
    Display aspect ratio                     : 2.25:1
    Frame rate mode                          : Variable
    Frame rate                               : 23.976 fps
    Color space                              : YUV
    Chroma subsampling                       : 4:2:0
    Bit depth                                : 8 bits
    Scan type                                : Progressive
    Bits/(Pixel*Frame)                       : 0.272
    Stream size                              : 611 MiB (92%)
    Title                                    : Frozen.Fever.2015.SHORT.1080p.BluRay.x264.DTS-RARBG
    Writing library                          : x264 core 142 r2495 6a301b6
    Encoding settings                        : cabac=1 / ref=4 / deblock=1:-2:-2 / analyse=0x3:0x113 / me=umh / subme=7 / psy=1 / psy_rd=1.00:0.15 / mixed_ref=1 / me_range=16 / chroma_me=1 / trellis=1 / 8x8dct=1 / cqm=0 / deadzone=21,11 / fast_pskip=1 / chroma_qp_offset=-3 / threads=12 / lookahead_threads=3 / sliced_threads=0 / nr=0 / decimate=1 / interlaced=0 / bluray_compat=0 / constrained_intra=0 / bframes=5 / b_pyramid=2 / b_adapt=2 / b_bias=0 / direct=3 / weightb=1 / open_gop=0 / weightp=2 / keyint=250 / keyint_min=25 / scenecut=40 / intra_refresh=0 / rc_lookahead=50 / rc=abr / mbtree=1 / bitrate=11500 / ratetol=1.0 / qcomp=0.60 / qpmin=0 / qpmax=69 / qpstep=4 / vbv_maxrate=31250 / vbv_bufsize=31250 / nal_hrd=none / filler=0 / ip_ratio=1.40 / aq=1:0.60
    Language                                 : English
    Default                                  : Yes
    Forced                                   : No

    Audio #1
    ID                                       : 2
    Format                                   : AC-3
    Format/Info                              : Audio Coding 3
    Mode extension                           : CM (complete main)
    Codec ID                                 : A_AC3
    Duration                                 : 7mn 57s
    Bit rate mode                            : Constant
    Bit rate                                 : 192 Kbps
    Channel(s)                               : 2 channels
    Channel positions                        : Front: L R
    Sampling rate                            : 48.0 KHz
    Bit depth                                : 16 bits
    Compression mode                         : Lossy
    Stream size                              : 10.9 MiB (2%)
    Language                                 : Russian
    Default                                  : Yes
    Forced                                   : No

    Audio #2
    ID                                       : 3
    Format                                   : AC-3
    Format/Info                              : Audio Coding 3
    Mode extension                           : CM (complete main)
    Codec ID                                 : A_AC3
    Duration                                 : 7mn 57s
    Bit rate mode                            : Constant
    Bit rate                                 : 448 Kbps
    Channel(s)                               : 6 channels
    Channel positions                        : Front: L C R, Side: L R, LFE
    Sampling rate                            : 48.0 KHz
    Bit depth                                : 16 bits
    Compression mode                         : Lossy
    Stream size                              : 25.5 MiB (4%)
    Language                                 : English
    Default                                  : No
    Forced                                   : No

    Menu
    00:00:00.000                             : en:Chapter 1




    Скриншоты:



    pb.wtf



  • Скачать Холодное торжество через торрент http://i4.imageban.ru/out/2015/08/01/6317f884bcad3cb4fbc6f6f1fcebc10f.jpg Скачать фильм Холодное торжество через торрент бесплантно в хорошем качестве Описание: В день рождения Анны, Эльза и Кристофф полны решимости подарить ей лучший праздник, сделанный когда-либо, но ледяные силы Эльзы ... 9.8 10 19
    Торрент: Зарегистрирован [2015-08-01 02:47] · скачан: 713 раз
    Статус: T временная
    Размер: 661 MB
    Как cкачать? Как скачать Холодное торжество через торрент | qTorrent

    % Раздел Тема Автор DL S | L
    T Короткометражные мультфильмы [ 157 MB ] Холодное торжество / Frozen Fever [2015 мультфильм короткометражка HDRip - [Звук с TS] GEKADOL Скачать
    2 | 0

    28-11-2019 20:33  

    Отключить всю рекламу на сайте

      Дорогой пользователь! Огромная просьба, поблагодарите релизера, оцените раздачу и оставьте свои комментарий, если Вы скачали Холодное торжество через торрент бесплатно! Внесите свою лепту в развитие PiratBit!
      Комментировать посты могут только пользователи прошедшие не сложную регистрацию
      Показать сообщения:    

      Холодное торжество через торрент
      Скачать бесплатно Холодное торжество
      Холодное торжество скачать торрент
      Холодное торжество смотреть онлайн
      Cкачать фильм Холодное торжество бесплатно
      Холодное торжество скачать торрент в хорошем качестве
      Холодное торжество смотреть онлайн бесплатно в хорошем качестве


      Вы не можете начинать темы
      Вы не можете отвечать на сообщения
      Вы не можете редактировать свои сообщения
      Вы не можете удалять свои сообщения
      Вы не можете голосовать в опросах
      Вы не можете прикреплять файлы к сообщениям
      Вы можете скачивать файлы