Ссылка на приватное зеркало всего за 1$. Внимание количество ограничено!!!

iTunes

iTunes

iTunes

1

iTunes

iTunes

iTunes

iTunes

iTunes

30
pack

$ от Little Big

ВАЖНО

!!Акция!!

Alien_RageХит недели

RePack

Resident Evil 21

ИГРА 18+

pack

RePack

jed

!!Акция!!

Alien_Rage

RePack

fifa19

RePack

Assassins Creed: Odyssey

RePack

NEED FOR SPEED™ PAYBACK

4 сезон

9 сезон

Бесстыжие 9 сезон

Все сериалы

все сериалы на PB.wtf

RePack

FAR CRY 5
  

Убийство кота / Murder of a Cat (Джиллиан Грин) [2014, триллер, комедия, WEB-DL 720p, Профессиональный многоголосый - iTunes] pb.wtf

Убийство кота через торрент pb.wtf

Размер: 3.2 GB | Добавлен: 4 года 11 мес. назад | Торрент скачан:70 раз
Скачать  

01-08-2015 10:28 Убийство кота Скачать торрент  

Убийство кота / Murder of a Cat


Год выпуска: 2014
Страна: США
Жанр: триллер, комедия

Продолжительность: 01:41:08
Перевод: Профессиональный многоголосый - iTunes
Субтитры: английские
Режиссер: Джиллиан Грин
В ролях:

Фрэн Кранц (Clinton Moisey), Никки Рид (Greta), Дж.К. Симмонс (Sheriff Hoyle), Блайт Даннер (Edie), Грег Киннер (Ford), Леонардо Нам (Yi Kim), Тед Рэйми (Young Sheriff), Карла Хименес (Rosalita), Дилип Рао (Dr. Mundhra), Дебра Кристофферсон (Barb), Джоэнн Барон (Phyllis), Том Йи (Rogin Kim)

Описание:
Молодой паренек Клинтон живет в комфортном пригороде, с красивыми домами, зелеными газонами и дружелюбными соседями. Несмотря на свой возраст, Клинтон продолжает жить вместе с матерью, а потеряв работу он впал в отчаяние. Единственным лучшим другом парня остается его кот Мурзик, который никогда не предает своего хозяина, в отличии от людей.
Но в один из дней, Клинтон узнает, что его кота убили. На место преступления прибывает местный шериф и даже съемочная группа новостей, но Клинтон берет расследование дела в свои руки. Он намерен найти и наказать преступника, тем самым свершив справедливость. Однако расследование дела приводит парня к внезапным открытиям и новым знакомствам...
Рейтинг:


Качество: WEB-DL 720p
Формат: MKV
Видео кодек: AVC
Аудио кодек: AC3
Видео: AVC, 1280x718 (16:9), 3861 kbps, 23,976 fps, 0,175 bpp
Аудио №1: русский / AC3 / 2.0 / 48 kHz / 192 kbps / 16 bit ||
Аудио №2: английский / AC3 / 5.1 / 48 kHz / 384 kbps / 16 bit
Навигация по главам: есть

Код:

Общее
Уникальный идентификатор                 : 200111139082123049105724708131054890076 (0x968C00E5235AA8F4846156794D012C5C)
Полное имя                               : E:\Films\Ybijsttvo.kota.2014.WEBDL.720p.mkv
Формат                                   : Matroska
Версия формата                           : Version 2
Размер файла                             : 3,20 Гбайт
Продолжительность                        : 1 ч. 41 м.
Общий поток                              : 4528 Кбит/сек
Дата кодирования                         : UTC 2015-07-12 18:30:17
Программа кодирования                    : mkvmerge v4.0.0 ('The Stars were mine') сборка от Jun  6 2010 16:18:42
Библиотека кодирования                   : libebml v1.0.0 + libmatroska v1.0.0

Видео
Идентификатор                            : 1
Формат                                   : AVC
Формат/Информация                        : Advanced Video Codec
Профиль формата                          : High@L3.1
Параметр CABAC формата                   : Нет
Параметр ReFrames формата                : 2 кадра
Идентификатор кодека                     : V_MPEG4/ISO/AVC
Продолжительность                        : 1 ч. 41 м.
Битрейт                                  : 3862 Кбит/сек
Ширина                                   : 1280 пикселей
Высота                                   : 718 пикселей
Соотношение сторон                       : 16:9
Режим частоты кадров                     : Постоянный
Частота кадров                           : 23,976 кадра/сек
Цветовое пространство                    : YUV
Субдискретизация насыщенности            : 4:2:0
Битовая глубина                          : 8 бит
Тип развёртки                            : Прогрессивная
Бит/(Пиксели*Кадры)                      : 0.175
Размер потока                            : 2,73 Гбайт (85%)
Заголовок                                : Murder.of.a.Cat.2014.720p.WEB-DL.DD5.1.H264-RARBG
Язык                                     : English
Default                                  : Нет
Forced                                   : Нет
colour_range                             : Limited
Основные цвета                           : BT.709
Характеристики трансфера                 : BT.709
Коэффициенты матрицы                     : BT.709

Аудио #1
Идентификатор                            : 2
Формат                                   : AC-3
Формат/Информация                        : Audio Coding 3
Расширение режима                        : CM (complete main)
Параметр Endianness формата              : Big
Идентификатор кодека                     : A_AC3
Продолжительность                        : 1 ч. 41 м.
Вид битрейта                             : Постоянный
Битрейт                                  : 192 Кбит/сек
Каналы                                   : 2 канала
Расположение каналов                     : Front: L R
Частота                                  : 48,0 КГц
Битовая глубина                          : 16 бит
Метод сжатия                             : С потерями
Размер потока                            : 139 Мбайт (4%)
Язык                                     : Russian
Default                                  : Да
Forced                                   : Да

Аудио #2
Идентификатор                            : 3
Формат                                   : AC-3
Формат/Информация                        : Audio Coding 3
Расширение режима                        : CM (complete main)
Параметр Endianness формата              : Big
Идентификатор кодека                     : A_AC3
Продолжительность                        : 1 ч. 41 м.
Вид битрейта                             : Постоянный
Битрейт                                  : 384 Кбит/сек
Каналы                                   : 6 каналов
Расположение каналов                     : Front: L C R, Side: L R, LFE
Частота                                  : 48,0 КГц
Битовая глубина                          : 16 бит
Метод сжатия                             : С потерями
Размер потока                            : 278 Мбайт (8%)
Язык                                     : English
Default                                  : Нет
Forced                                   : Нет

Текст
Идентификатор                            : 4
Формат                                   : UTF-8
Идентификатор кодека                     : S_TEXT/UTF8
Идентификатор кодека/Информация          : UTF-8 Plain Text
Язык                                     : English
Default                                  : Нет
Forced                                   : Нет

Меню
00:00:00.000                             : en:Chapter 1
00:10:00.000                             : en:Chapter 2
00:20:01.000                             : en:Chapter 3
00:30:01.000                             : en:Chapter 4
00:40:02.000                             : en:Chapter 5
00:50:03.000                             : en:Chapter 6
01:00:03.000                             : en:Chapter 7
01:10:04.000                             : en:Chapter 8
01:20:04.000                             : en:Chapter 9
01:30:05.000                             : en:Chapter 10

скриншот   скриншот   скриншот  
pb.wtf



Скачать Убийство кота через торрент http://i2.imageban.ru/out/2015/08/01/998aa5914ffceae78f2434240910a3d3.jpg Скачать фильм Убийство кота через торрент бесплантно в хорошем качестве Описание: Молодой паренек Клинтон живет в комфортном пригороде, с красивыми домами, зелеными газонами и дружелюбными соседями. Несмотря на ... 10 10 3
Торрент: Зарегистрирован [2015-08-01 10:28] · скачан: 70 раз
Статус: √ проверено
Размер: 3.2 GB
Как cкачать? Как скачать Убийство кота через торрент | qTorrent

% Раздел Тема Автор DL S | L
Фильмы 2014 [DVDrip, WEB-DLRip, HDrip] [ 1.5 GB ] Убийство кота / Murder of a Cat [2014 WEB-DLRip многоголосый - ] 10oN Скачать
1 | 0
Фильмы 2014 [DVDrip, WEB-DLRip, HDrip] [ 1.37 GB ] Убийство кота / Murder of a Cat [2014 WEB-DLRip] MVO Ворон Скачать
1 | 0
Фильмы (WEB-DL 720p, 1080p) [ 3.2 GB ] Убийство кота / Murder of a Cat [2014 WEB-DL 720p] MVO Ворон Скачать
1 | 0

28-11-2019 20:33  

Отключить всю рекламу на сайте

    Дорогой пользователь! Огромная просьба, поблагодарите релизера, оцените раздачу и оставьте свои комментарий, если Вы скачали Убийство кота через торрент бесплатно! Внесите свою лепту в развитие PiratBit!
    Комментировать посты могут только пользователи прошедшие не сложную регистрацию
    Показать сообщения:    

    Убийство кота через торрент
    Скачать бесплатно Убийство кота
    Убийство кота скачать торрент
    Убийство кота смотреть онлайн
    Cкачать фильм Убийство кота бесплатно
    Убийство кота скачать торрент в хорошем качестве
    Убийство кота смотреть онлайн бесплатно в хорошем качестве


    Вы не можете начинать темы
    Вы не можете отвечать на сообщения
    Вы не можете редактировать свои сообщения
    Вы не можете удалять свои сообщения
    Вы не можете голосовать в опросах
    Вы не можете прикреплять файлы к сообщениям
    Вы можете скачивать файлы