Ссылка на приватное зеркало нашего сайта всего за 1$. Внимание количество ограничено!!!

2 сезон

iTunes

1 сезон

1

iTunes

iTunes

iTunes

1 сезон

RePack

30

ИГРА 18+

pack

ВАЖНО

!!Акция!!

Alien_RageХит недели

RePack

MK11
pack

Забери бонус

RePack

jed

!!Акция!!

Alien_Rage

RePack

fifa19

RePack

Assassins Creed: Odyssey

RePack

NEED FOR SPEED™ PAYBACK

4 сезон

9 сезон

Бесстыжие 9 сезон

Все сериалы

все сериалы на PB.wtf

RePack

FAR CRY 5
  

Предчувствие / Premonition (Меннан Япо / Mennan Yapo) [2007, США, фантастика, фэнтези, триллер, BDRip 720p от _denis_100 / NNNB] DUB, AVO pb.wtf

Предчувствие через торрент pb.wtf

Размер: 4.37 GB | Добавлен: 5 лет 2 мес. назад | Торрент скачан:272 раза
Скачать  

01-08-2015 15:40 Предчувствие Скачать торрент  

Предчувствие / Premonition
«Представь себе невозможное»


Год выпуска: 2007
Страна: США
Жанр: фантастика, фэнтези, триллер, драма, детектив
Продолжительность: 01:36:27
Перевод: Дублированный - [Лицензия], Авторский (одноголосый)
Субтитры: русские, английские
Режиссер: Меннан Япо
В ролях: Сандра Буллок , Джулиан МакМэхон , Шайэн МакКлюр , Кортни Тэйлор Бернесс , Ниа Лонг , Марк Маколей , Кейт Неллиган , Ирен Циглер , Филлип ДеВона , Ричи Монтгомери , Мэтт Мур , Эмбер Валлетта
Описание:
У каждого в жизни хоть раз было предчувствие беды. Когда просто знаешь, что скоро произойдет что-то плохое. Домохозяйку Линду сейчас как раз охватило такое предчувствие. Некоторое время спустя шериф города сообщает ей, что ее муж погиб в автокатастрофе. Не зная себя от горя и отчаяния, Линда не находит себе места - она не верит, что такое могло произойти. Проснувшись утром на следующий день, она видит своего мужа целым и невредимым...
Вскоре Линда поймет, что это было не простое предчувствие, и теперь она должна предотвратить трагедию.

PG-13 - Детям до 13 лет просмотр не желателен
Качество: BDRip 720p
Контейнер (Расширение): MKV
Видео кодек: AVC
Аудио кодек: AC3
Видео: 1280x534, 4760 Кбит/сек, 23,976 кадр/сек, 0,290 Бит/[Пиксели*Кадры]
Аудио №1: русский / AC3 / 5.1 / 48 kHz / 448 kbps / 16 bit |Дублированный|
Аудио №2: русский / AC3 / 5.1 / 48 kHz / 640 kbps / 16 bit |Авторский, Сербин|
Аудио №3: английский / AC3 / 5.1 / 48 kHz / 640 kbps / 16 bit
Навигация по главам(Чаптеры): естьАвтор рипа: Сообщество:
  • Фильм снят за 45 дней.
  • Съемки фильма предполагалось проводить в Новом Орлеане, но ураган «Катрина» заставил создателей фильма изменить локацию.
  • Джулиан МакМэхон снимался в сериале «Зачарованные», где, по иронии судьбы, его персонаж был влюблен в ведьму Фиби, так же обладающую даром предвидения, как и жена персонажа Джулиана МакМэхона в фильме «Предчувствие».
  • Этот фильм - не ремейк японского фильма, который носит одноименное название.
  • В больничной сцене, где героине Сандры Буллок делают укол, не был использован дублер. Укол от столбняка был на самом деле сделан Сандре, т. к. она нечаянно себя порезала перед этой сценой.
  • Бриджит разбила стекло во вторник еще до трагедии, однако первый день в фильме четверг и на лице девочки нет шрамов.
  • Код:

    Format                                   : Matroska
    Format version                           : Version 2
    File size                                : 4.37 GiB
    Duration                                 : 1h 36mn
    Overall bit rate                         : 6 484 Kbps
    Movie name                               : Predchuvstvie.(2007).BDRip.720p.[denis100]
    Encoded date                             : UTC 2015-08-01 15:19:50
    Writing application                      : mkvmerge v5.8.0 ('No Sleep / Pillow') built on Sep  2 2012 15:37:04
    Writing library                          : libebml v1.2.3 + libmatroska v1.3.0

    Video
    ID                                       : 1
    Format                                   : AVC
    Format/Info                              : Advanced Video Codec
    Format profile                           : High@L4.1
    Format settings, CABAC                   : Yes
    Format settings, ReFrames                : 11 frames
    Codec ID                                 : V_MPEG4/ISO/AVC
    Duration                                 : 1h 36mn
    Bit rate                                 : 4 760 Kbps
    Width                                    : 1 280 pixels
    Height                                   : 534 pixels
    Display aspect ratio                     : 2.40:1
    Frame rate                               : 23.976 fps
    Color space                              : YUV
    Chroma subsampling                       : 4:2:0
    Bit depth                                : 8 bits
    Scan type                                : Progressive
    Bits/(Pixel*Frame)                       : 0.290
    Stream size                              : 3.12 GiB (71%)
    Title                                    : Predchuvstvie.(2007).BDRip.720p.[denis100]
    Writing library                          : x264 core 146 r2538 121396c
    Encoding settings                        : cabac=1 / ref=11 / deblock=1:-3:-3 / analyse=0x3:0x133 / me=umh / subme=11 / psy=1 / psy_rd=1.00:0.05 / mixed_ref=1 / me_range=32 / chroma_me=1 / trellis=2 / 8x8dct=1 / cqm=0 / deadzone=21,11 / fast_pskip=0 / chroma_qp_offset=-3 / threads=6 / lookahead_threads=1 / sliced_threads=0 / nr=0 / decimate=1 / interlaced=0 / bluray_compat=0 / constrained_intra=0 / bframes=8 / b_pyramid=2 / b_adapt=2 / b_bias=0 / direct=1 / weightb=1 / open_gop=0 / weightp=2 / keyint=240 / keyint_min=23 / scenecut=40 / intra_refresh=0 / rc=2pass / mbtree=0 / bitrate=4760 / ratetol=1.0 / qcomp=0.60 / qpmin=0 / qpmax=69 / qpstep=4 / cplxblur=20.0 / qblur=0.5 / ip_ratio=1.40 / pb_ratio=1.30 / aq=1:0.90
    Language                                 : English
    Default                                  : Yes
    Forced                                   : No

    Audio #1
    ID                                       : 2
    Format                                   : AC-3
    Format/Info                              : Audio Coding 3
    Mode extension                           : CM (complete main)
    Codec ID                                 : A_AC3
    Duration                                 : 1h 36mn
    Bit rate mode                            : Constant
    Bit rate                                 : 448 Kbps
    Channel(s)                               : 6 channels
    Channel positions                        : Front: L C R, Side: L R, LFE
    Sampling rate                            : 48.0 KHz
    Bit depth                                : 16 bits
    Compression mode                         : Lossy
    Stream size                              : 309 MiB (7%)
    Title                                    : Дублированный
    Language                                 : Russian
    Default                                  : Yes
    Forced                                   : No

    Audio #2
    ID                                       : 3
    Format                                   : AC-3
    Format/Info                              : Audio Coding 3
    Mode extension                           : CM (complete main)
    Codec ID                                 : A_AC3
    Duration                                 : 1h 36mn
    Bit rate mode                            : Constant
    Bit rate                                 : 640 Kbps
    Channel(s)                               : 6 channels
    Channel positions                        : Front: L C R, Side: L R, LFE
    Sampling rate                            : 48.0 KHz
    Bit depth                                : 16 bits
    Compression mode                         : Lossy
    Stream size                              : 442 MiB (10%)
    Title                                    : Авторский, Сербин
    Language                                 : Russian
    Default                                  : No
    Forced                                   : No

    Audio #3
    ID                                       : 4
    Format                                   : AC-3
    Format/Info                              : Audio Coding 3
    Mode extension                           : CM (complete main)
    Codec ID                                 : A_AC3
    Duration                                 : 1h 36mn
    Bit rate mode                            : Constant
    Bit rate                                 : 640 Kbps
    Channel(s)                               : 6 channels
    Channel positions                        : Front: L C R, Side: L R, LFE
    Sampling rate                            : 48.0 KHz
    Bit depth                                : 16 bits
    Compression mode                         : Lossy
    Stream size                              : 442 MiB (10%)
    Language                                 : English
    Default                                  : No
    Forced                                   : No

    Text #1
    ID                                       : 5
    Format                                   : UTF-8
    Codec ID                                 : S_TEXT/UTF8
    Codec ID/Info                            : UTF-8 Plain Text
    Language                                 : Russian
    Default                                  : No
    Forced                                   : No

    Text #2
    ID                                       : 6
    Format                                   : UTF-8
    Codec ID                                 : S_TEXT/UTF8
    Codec ID/Info                            : UTF-8 Plain Text
    Language                                 : English
    Default                                  : No
    Forced                                   : No

    Menu
    00:00:00.000                             : en:Chapter 01
    00:07:54.973                             : en:Chapter 02
    00:12:15.692                             : en:Chapter 03
    00:16:26.234                             : en:Chapter 04
    00:19:58.445                             : en:Chapter 05
    00:27:33.317                             : en:Chapter 06
    00:33:01.813                             : en:Chapter 07
    00:38:01.362                             : en:Chapter 08
    00:43:11.255                             : en:Chapter 09
    00:48:46.172                             : en:Chapter 10
    00:56:17.456                             : en:Chapter 11
    01:02:52.309                             : en:Chapter 12
    01:08:02.744                             : en:Chapter 13
    01:16:44.430                             : en:Chapter 14
    01:23:44.600                             : en:Chapter 15
    01:27:44.634                             : en:Chapter 16

    x264 [info]: frame I:903 Avg QP:13.98 size:104985
    x264 [info]: frame P:31398 Avg QP:16.47 size: 43663
    x264 [info]: frame B:106468 Avg QP:18.31 size: 18533
    pb.wtf



    Скачать Предчувствие через торрент http://i72.fastpic.ru/big/2015/0801/b1/24f428a0dd97161385bf66d10a4b0eb1.png Скачать фильм Предчувствие через торрент бесплантно в хорошем качестве Описание:У каждого в жизни хоть раз было предчувствие беды. Когда просто знаешь, что скоро произойдет что-то плохое. Домохозяйку Линду ... 8.9 10 12
    Info! Золотая раздача, скачанное не засчитывается.
    Торрент: Зарегистрирован [2015-08-01 15:40] · скачан: 272 раз
    Статус: √ проверено
    Размер: 4.37 GB
    Как cкачать? Как скачать Предчувствие через торрент | qTorrent

    % Раздел Тема Автор DL S | L
    Фильмы 2006-2008 [ 2.57 GB ] Предчувствие / Premonition [2007 BDRip AVC by msltel] DUB 2 x AVO msltel Скачать
    1 | 0
    Фильмы [HD 720p, 1080p] (Хороший звук DUB, MVO) [ 11 GB ] Предчувствие / Premonition [2007 BDRip 1080p by msltel] DUB DVO 2 x AVO msltel Скачать
    1 | 0
    Фильмы [HD 720p, 1080p] (Хороший звук DUB, MVO) [ 4.38 GB ] Предчувствие / Premonition [2007 BDRip 720p by msltel] DUB DVO 2 x AVO msltel Скачать
    8 | 0
    Фильмы [HD 720p, 1080p] (Хороший звук DUB, MVO) [ 9.56 GB ] Предчувствие / Premonition [2007 BDRip 1080p by msltel] DUB 2 x AVO msltel Скачать
    1 | 0

    28-11-2019 20:33  

    Отключить всю рекламу на сайте

      Дорогой пользователь! Огромная просьба, поблагодарите релизера, оцените раздачу и оставьте свои комментарий, если Вы скачали Предчувствие через торрент бесплатно! Внесите свою лепту в развитие PiratBit!
      Комментировать посты могут только пользователи прошедшие не сложную регистрацию
      Показать сообщения:    

      Предчувствие через торрент
      Скачать бесплатно Предчувствие
      Предчувствие скачать торрент
      Предчувствие смотреть онлайн
      Cкачать фильм Предчувствие бесплатно
      Предчувствие скачать торрент в хорошем качестве
      Предчувствие смотреть онлайн бесплатно в хорошем качестве


      Вы не можете начинать темы
      Вы не можете отвечать на сообщения
      Вы не можете редактировать свои сообщения
      Вы не можете удалять свои сообщения
      Вы не можете голосовать в опросах
      Вы не можете прикреплять файлы к сообщениям
      Вы можете скачивать файлы