новый адрес пиратбит piratbit
Мега распродажа FORZA HORIZON 4 ULTIMATE+ВСЕ DLC+ОНЛАЙН всего за 499р. 349 руб. (супер цена). Внимание количество ограничено!!!

iTunes

1+1

iTunes

мы

iTunes

1

iTunes

Чернобыль

iTunes

Ральф против интернета

Лицензия

ПШазам

Лицензия

Игра престолов

Лицензия

30
pack

ВАЖНО

!!Акция!!

Alien_RageХит недели

RePack

Resident Evil 21

ИГРА 18+

pack

RePack

Metro:Exodus

!!Акция!!

Alien_Rage

RePack

fifa19

RePack

Assassins Creed: Odyssey

RePack

NEED FOR SPEED™ PAYBACK

3 сезон

9 сезон

Бесстыжие 9 сезон

Все сериалы

все сериалы на PB.wtf

RePack

FAR CRY 5
Ребята, катастрофически не хватает 1900р. для оплаты серверов за Октябрь (всвязи с блокировками трафик упал в 3 раза), 1-2р., выручайте.
  

Молодая гвардия (Сергей Герасимов) [1948, СССР, драма, военный, DVDRip от AVP Studio] pb.wtf

Молодая гвардия через торрент pb.wtf

Размер: 1.46 GB | Добавлен: 4 года 3 мес. назад | Торрент скачан:47 раз
Скачать  

01-08-2015 18:35 Молодая гвардия Скачать торрент  

Молодая гвардия
Страна: СССР
Производство: Студия Горького

Жанр: драма, военный
Год выпуска: 1948
Продолжительность: 02:39:59 (01:23:24 + 01:16:35)

Перевод: Не требуется
Cубтитры: нет
Оригинальная аудиодорожка: русский

Режиссер: Сергей Герасимов

В ролях: Владимир Иванов, Инна Макарова, Сергей Гурзо, Борис Битюков, Нонна Мордюкова, Сергей Бондарчук, Глеб Романов, Людмила Шагалова, Вячеслав Тихонов, Караман Мгеладзе, Анатолий Чемодуров, Георгий Юматов, Евгений Моргунов, Клара Лучко, Людмила Иванова, Муза Крепкогорская, Тамара Носова, Виктор Авдюшко, Георгий Шаповалов, Юрий Егоров, Виктор Хохряков, Евгений Тетерин, Андрей Файт, Тамара Макарова, Александра Панова, Аза Калашникова, Мария Яроцкая, Лев Фенин, Александра Денисова, Владимир Уральский, Зинаида Воркуль, Александра Харитонова, Сергей Комаров, Григорий Шпигель, Василий Бокарев, Алексей Розанов...

Описание: Фильм рассказывает о событиях 1942, происшедших в оккупированном фашистами Краснодоне. Вчерашние школьники создают подпольную организацию и начинают свою борьбу: распространяют листовки, освобождают группу пленных красноармейцев, сжигают немецкую биржу, спасая соотечественников от фашистского рабства, в день годовщины Октября развешивают красные флаги. В их действиях, как и в их детском бесстрашии многое идет от игры: ведь еще вчера кое-кто был признанным хулиганом, кое-кто вовсе не помышлял о подвигах, кое-кто не желал выслушивать наставления, подчиняться дисциплине. Но именно благодаря их изобретательности, отчаянной смелости и дерзости удавались самые опасные и самые ошеломляющие акции.

Источник: DVD9 R5
Качество видео: DVDRip
Формат видео: AVI
Видео кодек: XviD
Аудио кодек: MP3
Видео: 640x480 (4:3), 25 fps, XviD ~ 1169 kbps avg, 0.152 bit/pixel
Аудио: 48 kHz, MP3 2.0, 128 kbps

Раздача от:
Общее
Полное имя : Molodaya.Gvardia.1948.DVDRip-1.46_[New-team]_by_AVP_Studio\01.avi
Формат : AVI
Формат/Информация : Audio Video Interleave
Размер файла : 779 Мбайт
Продолжительность : 1 ч. 23 м.
Общий поток : 1307 Кбит/сек
Программа кодирования : VirtualDubMod 1.5.10.3 | www.virtualdub-fr.org || (build 2550/release)
Библиотека кодирования : VirtualDubMod build 2550/release

Видео
Идентификатор : 0
Формат : MPEG-4 Visual
Профиль формата : Advanced Simple@L5
Параметр BVOP формата : 1
Параметр QPel формата : Нет
Параметр GMC формата : Без точки перехода
Параметр матрицы формата : Выборочная
Идентификатор кодека : XVID
Идентификатор кодека/Подсказка : XviD
Продолжительность : 1 ч. 23 м.
Битрейт : 1169 Кбит/сек
Ширина : 640 пикселей
Высота : 480 пикселей
Соотношение сторон : 4:3
Частота кадров : 25,000 кадров/сек
Цветовое пространство : YUV
Субдискретизация насыщенности : 4:2:0
Битовая глубина : 8 бит
Тип развёртки : Прогрессивная
Метод сжатия : С потерями
Бит/(Пиксели*Кадры) : 0.152
Размер потока : 697 Мбайт (89%)
Библиотека кодирования : XviD 73

Аудио
Идентификатор : 1
Формат : MPEG Audio
Версия формата : Version 1
Профиль формата : Layer 3
Идентификатор кодека : 55
Идентификатор кодека/Подсказка : MP3
Продолжительность : 1 ч. 23 м.
Вид битрейта : Постоянный
Битрейт : 128 Кбит/сек
Каналы : 2 канала
Частота : 48,0 КГц
Метод сжатия : С потерями
Размер потока : 76,4 Мбайт (10%)
Выравнивание : Соединение по промежуткам
Продолжительность промежутка : 40 мс. (1,00 видеокадр)
Время предзагрузки промежутка : 504 мс.
Библиотека кодирования : LAME3.99r
Настройки программы : -m s -V 4 -q 2 -lowpass 17 -b 128
pb.wtf



Скачать Молодая гвардия через торрент http://s018.radikal.ru/i503/1508/39/961c2acaa512.png Скачать фильм Молодая гвардия через торрент бесплантно в хорошем качестве Описание: Фильм рассказывает о событиях 1942, происшедших в оккупированном фашистами Краснодоне. Вчерашние школьники создают подпольную ... 10 10 5
Торрент: Зарегистрирован [2015-08-01 18:35] · скачан: 47 раз
Статус: √ проверено
Размер: 1.46 GB
Как cкачать? Как скачать Молодая гвардия через торрент | qTorrent

% Раздел Тема Автор DL S | L
Наши сериалы [ 31.12 GB ] Молодая гвардия / Серии: 1-12 из 12 [2015 военный HDTV 1080i] bober100 Скачать
1 | 0
Наши сериалы [ 17.61 GB ] Молодая гвардия / 1-12 серии из 12 [2015 военный WEB-DLRip 1080p] bober100 Скачать
1 | 0
Кино СССР [ 2.18 GB ] Молодая гвардия [1948 СССР военный DVDRip-AVC от AVP Studio] AVP Studio Скачать
1 | 0
Кино СССР [ 2.18 GB ] Молодая гвардия [1948 СССР военный DVDRip от AVP Studio] AVP Studio Скачать
1 | 0
Наши сериалы [ 7.95 GB ] Молодая гвардия / 1 сезон / 1-12 серия из 12 [2014 военная приключенческая WEB-DLRip-AVC] aleksan55 Скачать
1 | 0
Наши сериалы [ 3.55 GB ] Молодая гвардия / Серии: 1-6 из 12 [2015 Военный WEB-DLRip] lug30 Скачать
1 | 0


>> Регистрируемся здесь <<






Отзывы и комментарии о схеме читаем и пишем здесь: ---> Отзывы и комментарии о схеме

Новые благодарочки в телеграм довольных пользователей:
скриншот   скриншот   скриншот   скриншот   скриншот
    Дорогой пользователь! Огромная просьба, поблагодарите релизера, оцените раздачу и оставьте свои комментарий, если Вы скачали Молодая гвардия через торрент бесплатно! Внесите свою лепту в развитие PiratBit!
    Комментировать посты могут только пользователи прошедшие не сложную регистрацию
    Показать сообщения:    

    Молодая гвардия через торрент
    Скачать бесплатно Молодая гвардия
    Молодая гвардия скачать торрент
    Молодая гвардия смотреть онлайн
    Cкачать фильм Молодая гвардия бесплатно
    Молодая гвардия скачать торрент в хорошем качестве
    Молодая гвардия смотреть онлайн бесплатно в хорошем качестве


    Вы не можете начинать темы
    Вы не можете отвечать на сообщения
    Вы не можете редактировать свои сообщения
    Вы не можете удалять свои сообщения
    Вы не можете голосовать в опросах
    Вы не можете прикреплять файлы к сообщениям
    Вы можете скачивать файлы