Ссылка на приватное зеркало нашего сайта всего за 1$. Внимание количество ограничено!!!

2 сезон

iTunes

1 сезон

1

iTunes

iTunes

iTunes

1 сезон

RePack

30

ИГРА 18+

pack

ВАЖНО

!!Акция!!

Alien_RageХит недели

RePack

MK11
pack

Забери бонус

RePack

jed

!!Акция!!

Alien_Rage

RePack

fifa19

RePack

Assassins Creed: Odyssey

RePack

NEED FOR SPEED™ PAYBACK

4 сезон

9 сезон

Бесстыжие 9 сезон

Все сериалы

все сериалы на PB.wtf

RePack

FAR CRY 5
  

Форсаж 7 / Furious Seven (Джеймс Ван / James Wan) [2015, США, боевик, триллер, криминал, BDRip 720p, Расширенная версия] DUB Лицензия pb.wtf

Форсаж 7 через торрент pb.wtf

Размер: 9.34 GB | Добавлен: 5 лет 2 мес. назад | Торрент скачан:171 раз
Скачать  

01-08-2015 22:57 Форсаж 7 Скачать торрент  

Форсаж 7 / Furious Seven«Месть не знает границ»

Год выпуска: 2015
Страна: США
Жанр: боевик, триллер, криминал
Продолжительность: 02:19:54
Перевод: Дубляж - [Лицензия]
Субтитры: English
Режиссер: Джеймс Ван / James Wan
В ролях:


Вин Дизель (Dominic Toretto), Пол Уокер (Brian O'Conner), Джейсон Стэйтем (Deckard Shaw), Мишель Родригес (Letty), Дуэйн Джонсон (Hobbs), Тайриз Гибсон (Roman), Лудакрис (Tej), Натали Эммануэль (Ramsey), Джордана Брюстер (Mia), Курт Рассел (Mr. Nobody), Тони Джа (Kiet), Джимон Хонсу (Jakande)

Описание:
Они покорили Токио и Рио, Лос-Анджелес и Лондон. Но мир больше не играет по их правилам. Зной арабских пустынь, неприлично высокие небоскребы, миллионы долларов на колесах и очень, очень знаменитый злодей. Скорость не знает границ.

Рейтинг:
Бюджет:$190 000 000
MPAA: PG-13 - Детям до 13 лет просмотр не желателен
Качество: BDRip 720p
Формат: MKV
Видео кодек:AVC
Аудио кодек:AC3, DTS
Видео: AVC, 1280x534 (2.40:1), 7407 kbps, 23,976 fps, 0,452 bpp
Аудио №1: русский / AC3 / 5.1 / 48 kHz / 448 kbps / 16 bit - Дубляж - [Лицензия]
Аудио №2: английский / DTS / 5.1 / 48 kHz / 1510 kbps / 24 bit - (оригинал)

Примечание: Расширенная версия длинее на 2 минуты, полный перевод!


General
Unique ID : 182212583329455172716693841146198705334 (0x8914DDF6D8D05424B950170177E944B6)
Complete name : D:\_uTorrent_\F0PCazh.VII.2O15.D.BDRip.72Op.EXT.mkv
Format : Matroska
Format version : Version 2
File size : 9.34 GiB
Duration : 2h 19mn
Overall bit rate : 9 556 Kbps
Movie name : F2 @ VietHD
Encoded date : UTC 2015-07-31 22:13:54
Writing application : mkvmerge v8.2.0 ('World of Adventure') 64bit
Writing library : libebml v1.3.1 + libmatroska v1.4.2
Attachment : Yes

Video
ID : 1
Format : AVC
Format/Info : Advanced Video Codec
Format profile : High@L4.1
Format settings, CABAC : Yes
Format settings, ReFrames : 12 frames
Codec ID : V_MPEG4/ISO/AVC
Duration : 2h 19mn
Bit rate : 7 408 Kbps
Width : 1 280 pixels
Height : 534 pixels
Display aspect ratio : 2.40:1
Frame rate : 23.976 fps
Color space : YUV
Chroma subsampling : 4:2:0
Bit depth : 8 bits
Scan type : Progressive
Bits/(Pixel*Frame) : 0.452
Stream size : 7.24 GiB (78%)
Title : VietHD ~ Release for HDBits
Writing library : x264 core 142 r2431+42 c69a006 tMod [8-bit@all X86_64]
Encoding settings : cabac=1 / ref=12 / deblock=1:-3:-3 / analyse=0x3:0x133 / me=tesa / subme=11 / psy=1 / fade_compensate=0.00 / psy_rd=1.05:0.00 / mixed_ref=1 / me_range=32 / chroma_me=1 / trellis=2 / 8x8dct=1 / cqm=0 / deadzone=21,11 / fast_pskip=0 / chroma_qp_offset=-2 / threads=12 / lookahead_threads=2 / sliced_threads=0 / nr=0 / decimate=0 / interlaced=0 / bluray_compat=0 / constrained_intra=0 / fgo=0 / bframes=8 / b_pyramid=2 / b_adapt=2 / b_bias=0 / direct=3 / weightb=1 / open_gop=0 / weightp=2 / keyint=250 / keyint_min=23 / scenecut=40 / intra_refresh=0 / rc_lookahead=60 / rc=crf / mbtree=0 / crf=16.5000 / qcomp=0.70 / qpmin=0:0:0 / qpmax=69:69:69 / qpstep=4 / vbv_maxrate=62500 / vbv_bufsize=78125 / crf_max=0.0 / nal_hrd=none / filler=0 / ip_ratio=1.24 / pb_ratio=1.18 / aq=1:0.80 / aq-sensitivity=10.00 / aq-factor=1.00:1.00:1.00 / aq2=0 / aq3=0 / zones=26,588,crf=15/1500,5330,crf=15/8884,9219,crf=15/9754,9834,crf=15/11740,11750,crf=15/13618,16530,crf=15/20829,22988,crf=15/23025,23093,crf=14/23600,23956,crf=15/27115,27149,crf=14/35597,37259,crf=15/43911,43957,crf=15/44278,44343,crf=15/44409,44452,crf=15/44707,44791,crf=15/45029,49532,crf=15/58779,58813,crf=14/60061,62754,crf=15/62755,62837,crf=14/63353,63354,crf=14/63483,63624,crf=15/64644,64663,crf=15/64728,64763,crf=15/64971,64985,crf=15/66976,67030,crf=15/68613,71011,crf=15/71012,71032,crf=14/71033,71199,crf=15/71200,71206,crf=14/71207,72022,crf=15/72023,72043,crf=14/72044,73430,crf=15/73431,73435,crf=14/73436,73454,crf=15/73455,73463,crf=14/73464,75939,crf=15/75940,75949,crf=14/75950,77459,crf=15/77460,77475,crf=14/77476,80010,crf=15/80011,80020,crf=14/80021,89428,crf=15/93581,95344,crf=15/101589,101780,crf=14/105338,105371,crf=15/106920,107231,crf=15/108070,108148,crf=14/108248,108281,crf=15/108559,108656,crf=15/108913,108973,crf=14/109801,110160,crf=15/110348,110367,crf=14/110683,110686,crf=15/110776,111996,crf=15/112097,112200,crf=15/112708,112819,crf=15/113201,113418,crf=14/114669,114684,crf=15/115052,115116,crf=15/115140,115587,crf=15/115588,115604,crf=14/115605,118777,crf=15/124386,124471,crf=15/127302,130575,crf=14.5/140682,140733,crf=15/141638,152009,crf=15/152250,152620,crf=15/152735,161614,crf=15/161799,161810,crf=15/162273,162290,crf=15/162304,162318,crf=15/162355,162387,crf=15/162412,162443,crf=15/162498,162506,crf=15/162703,162728,crf=15/162729,163862,crf=15/164125,164188,crf=15/164286,164300,crf=15/164346,164600,crf=15/164649,164684,crf=15/164702,164780,crf=15/164846,164883,crf=15/164902,164930,crf=15/165021,165030,crf=15/166750,167010,crf=15/168719,168767,crf=15/169585,169601,crf=15/169702,169725,crf=15/170418,170459,crf=15/170495,170627,crf=15/170912,171062,crf=15/171089,171141,crf=15/171542,171599,crf=15/172013,172028,crf=15/171960,172028,crf=15/172850,172987,crf=15/173108,173122,crf=15/173456,173514,crf=15/173607,173637,crf=15/173649,173669,crf=15/173870,173950,crf=15/174739,174752,crf=15/175235,181688,crf=15/181689,181782,crf=21/181783,185743,crf=17/186541,186548,crf=15/186767,186835,crf=15/186888,186945,crf=15/187008,187018,crf=15/187229,187247,crf=15/187529,187532,crf=15/188060,189028,crf=17/189036,189059,crf=15/189060,201274,crf=21
Language : English
Default : Yes
Forced : No
Matrix coefficients : BT.709-5, BT.1361, IEC 61966-2-4 709, SMPTE RP177

Audio #1
ID : 2
Format : AC-3
Format/Info : Audio Coding 3
Mode extension : CM (complete main)
Codec ID : A_AC3
Duration : 2h 19mn
Bit rate mode : Constant
Bit rate : 448 Kbps
Channel(s) : 6 channels
Channel positions : Front: L C R, Side: L R, LFE
Sampling rate : 48.0 KHz
Bit depth : 16 bits
Compression mode : Lossy
Stream size : 448 MiB (5%)
Language : Russian
Default : Yes
Forced : No

Audio #2
ID : 3
Format : DTS
Format/Info : Digital Theater Systems
Codec ID : A_DTS
Duration : 2h 19mn
Bit rate mode : Constant
Bit rate : 1 510 Kbps
Channel(s) : 6 channels
Channel positions : Front: L C R, Side: L R, LFE
Sampling rate : 48.0 KHz
Bit depth : 24 bits
Compression mode : Lossy
Stream size : 1.48 GiB (16%)
Language : English
Default : No
Forced : No

Text #1
ID : 4
Format : UTF-8
Codec ID : S_TEXT/UTF8
Codec ID/Info : UTF-8 Plain Text
Language : English
Default : No
Forced : No

Text #2
ID : 5
Format : UTF-8
Codec ID : S_TEXT/UTF8
Codec ID/Info : UTF-8 Plain Text
Title : SDH
Language : English
Default : No
Forced : No

Menu
00:00:00.000 : en:00:00:00.000
00:04:39.946 : en:00:04:39.946
00:11:29.480 : en:00:11:29.480
00:16:39.290 : en:00:16:39.290
00:25:54.052 : en:00:25:54.052
00:33:43.897 : en:00:33:43.897
00:41:44.585 : en:00:41:44.585
00:46:41.006 : en:00:46:41.006
00:52:10.711 : en:00:52:10.711
01:02:31.414 : en:01:02:31.414
01:06:16.681 : en:01:06:16.681
01:14:16.869 : en:01:14:16.869
01:22:34.032 : en:01:22:34.032
01:33:21.137 : en:01:33:21.137
01:38:27.485 : en:01:38:27.485
01:45:40.084 : en:01:45:40.084
01:53:54.452 : en:01:53:54.452
01:58:31.062 : en:01:58:31.062
02:06:19.864 : en:02:06:19.864
02:11:31.175 : en:02:11:31.175

[/code]
pb.wtf



Скачать Форсаж 7 через торрент http://i70.fastpic.ru/big/2015/0802/ba/c4f6190018a3c135c34c782404e1e7ba.png Скачать фильм Форсаж 7 через торрент бесплантно в хорошем качестве Описание: Они покорили Токио и Рио, Лос-Анджелес и Лондон. Но мир больше не играет по их правилам. Зной арабских пустынь, неприлично ... 9.4 10 14
Info! Золотая раздача, скачанное не засчитывается.
Торрент: Зарегистрирован [2015-08-01 22:57] · скачан: 171 раз
Статус: √ проверено
Размер: 9.34 GB
Как cкачать? Как скачать Форсаж 7 через торрент | qTorrent

% Раздел Тема Автор DL S | L
Фильмы 2015 [DVDrip, WEB-DLRip, HDrip] [ 1.46 GB ] Форсаж 7 / Furious Seven [2015 BDRip-AVC] [Расширенная версия] DUB potroks Скачать
1 | 0
Фильмы 2015 [DVDrip, WEB-DLRip, HDrip] [ 1.47 GB ] Форсаж 7 / Furious Seven [2015 BDRip] DUB Twi7ter Скачать
1 | 0
Фильмы 2015 [DVDrip, WEB-DLRip, HDrip] [ 1.46 GB ] Форсаж 7 / Furious Seven [2015 BDRip] DUB Twi7ter Скачать
1 | 0
Фильмы [HD 720p, 1080p] (Хороший звук DUB, MVO) [ 6.28 GB ] Форсаж 7 / Furious Seven [2015 BDRip 720p] [Расширенная версия] DUB potroks Скачать
1 | 0
Фильмы [HD 720p, 1080p] (Хороший звук DUB, MVO) [ 15.56 GB ] Форсаж 7 / Furious Seven [2015 BDRip 1080p] DUB - / Extended Cut Newton5 Скачать
1 | 0
Фильмы 2015 [DVDrip, WEB-DLRip, HDrip] [ 2.91 GB ] Форсаж 7 / Furious Seven / Furious 7 [2015 BDRip-AVC от sokol_ok] [Расширенная версия] DUB sokol_ok Скачать
2 | 0
Фильмы 2015 [DVDrip, WEB-DLRip, HDrip] [ 1.45 GB ] Форсаж 7 / Furious Seven / Furious 7 [2015 BDRip-AVC от sokol_ok] [Расширенная версия] DUB sokol_ok Скачать
2 | 0

28-11-2019 20:33  

Отключить всю рекламу на сайте

01-08-2015 23:10 Форсаж 7 Скачать торрент  

Видимо 8-0й форсаж.... действо будет происходить на территории России..... pb.wtf



    Дорогой пользователь! Огромная просьба, поблагодарите релизера, оцените раздачу и оставьте свои комментарий, если Вы скачали Форсаж 7 через торрент бесплатно! Внесите свою лепту в развитие PiratBit!
    Комментировать посты могут только пользователи прошедшие не сложную регистрацию
    Показать сообщения:    

    Форсаж 7 через торрент
    Скачать бесплатно Форсаж 7
    Форсаж 7 скачать торрент
    Форсаж 7 смотреть онлайн
    Cкачать фильм Форсаж 7 бесплатно
    Форсаж 7 скачать торрент в хорошем качестве
    Форсаж 7 смотреть онлайн бесплатно в хорошем качестве


    Вы не можете начинать темы
    Вы не можете отвечать на сообщения
    Вы не можете редактировать свои сообщения
    Вы не можете удалять свои сообщения
    Вы не можете голосовать в опросах
    Вы не можете прикреплять файлы к сообщениям
    Вы можете скачивать файлы