Мега распродажа FORZA HORIZON 4 ULTIMATE+ВСЕ DLC+ОНЛАЙН всего за 499р. 349 руб. (супер цена). Внимание количество ограничено!!!

iTunes

1+1

iTunes

мы

iTunes

1

1 сезон

Чернобыль

1 сезон

Ральф против интернета

Лицензия

ПШазам

8 сезон

Игра престолов

Лицензия

30
pack

ВАЖНО

!!Акция!!

Alien_RageХит недели

RePack

Resident Evil 21

ИГРА 18+

pack

RePack

Metro:Exodus

!!Акция!!

Alien_Rage

RePack

fifa19

RePack

Assassins Creed: Odyssey

RePack

NEED FOR SPEED™ PAYBACK

3 сезон

9 сезон

Бесстыжие 9 сезон

Все сериалы

все сериалы на PB.wtf

RePack

FAR CRY 5
Ребята, катастрофически не хватает 2730р. для оплаты серверов за ИЮНЬ (всвязи с блокировками трафик упал в 3 раза), 1-2р., выручайте.
  

Дракула 2000 / Dracula 2000 (Патрик Люссье) [2000, ужасы, фэнтези, боевик, триллер, BDRip AVC by msltel] DUB pb.wtf

Дракула 2000 через торрент pb.wtf

Размер: 2.43 GB | Добавлен: 3 года 11 мес. назад | Торрент скачан:176 раз
Скачать  

02-08-2015 06:14 Дракула 2000 Скачать торрент  

Название: Дракула 2000
Оригинальное название: Dracula 2000
Год выпуска: 2000
Страна: США
Жанр: ужасы, фэнтези, боевик, триллер
Продолжительность: 01:39:01
Перевод: дублированный

Режиссёр: Патрик Люссье

В ролях: Джерард Батлер, Кристофер Пламмер, Джонни Ли Миллер, Джастин Уоддэлл, Коллин Фицпатрик, Дженнифер Эспозито, Омар Эппс, Шон Патрик Томас, Дэнни Мастерсон, Локлин Манро

Описание: Банда воров, оснащённых по последнему слову техники, проникает в хранилище известного лондонского антиквара Ван Хелсинга. Прихватив добычу, они скрываются из страны. Обеспокоенный Ван Хелсинг отправляется по следам грабителей, а за ним его помощник Саймон, заинтригованный тайной антиквара. Тот, с кем Саймон в итоге сталкивается, превосходит все ожидания! Его могущество безгранично, а деяния — ужасны! Его имя — Дракула. И лишь один человек на Земле знает правду. Но всей правды не знает никто!...



Качество: BDRip AVC Сравнение с исходником
Формат: MKV
Видео кодек: H.264
Аудио кодек: AC3
Видео: MPEG-4 AVC, 2866 Кбит/с, 1024x576, 23,943 кадра/с
Аудио 1: русский, AC3, 384 kbps, 6 ch, 48 kHz [дублированный]
Аудио 2: английский, AC3, 192 kbps, 2 ch, 48 kHz [оригинал]
Субтитры 1: русские
Субтитры 2: английские
Сатурн, 2001 год
Номинации (1):
Лучший фильм ужасов
Общее
Уникальный идентификатор : 210008408299391589748351968034273468445 (0x9DFE25F133891380984C5D182479A01D)
Полное имя : D:VideoДракула 2000.2000.BDRip.AVC.mkv
Формат : Matroska
Версия формата : Version 4 / Version 2
Размер файла : 2,43 Гбайт
Продолжительность : 1 ч. 39 м.
Общий поток : 3512 Кбит/сек
Название фильма : BDRip -- STarankov
Дата кодирования : UTC 2015-08-01 13:46:32
Программа кодирования : mkvmerge v8.2.0 ('World of Adventure') 64bit
Библиотека кодирования : libebml v1.3.1 + libmatroska v1.4.2
DURATION : 01:32:24.794000000
NUMBER_OF_FRAMES : 973
NUMBER_OF_BYTES : 24060
_STATISTICS_WRITING_APP : mkvmerge v8.2.0 ('World of Adventure') 64bit
_STATISTICS_WRITING_DATE_UTC : 2015-08-01 13:46:32
_STATISTICS_TAGS : BPS DURATION NUMBER_OF_FRAMES NUMBER_OF_BYTES

Видео
Идентификатор : 1
Формат : AVC
Формат/Информация : Advanced Video Codec
Профиль формата : High@L4.1
Параметр CABAC формата : Да
Параметр ReFrames формата : 9 кадров
Идентификатор кодека : V_MPEG4/ISO/AVC
Продолжительность : 1 ч. 39 м.
Битрейт : 2866 Кбит/сек
Ширина : 1024 пикселя
Высота : 576 пикселей
Соотношение сторон : 16:9
Режим частоты кадров : Постоянный
Частота кадров : 23,943 кадра/сек
Частота кадров в оригинале : 23,952 кадра/сек
Цветовое пространство : YUV
Субдискретизация насыщенности : 4:2:0
Битовая глубина : 8 бит
Тип развёртки : Прогрессивная
Бит/(Пиксели*Кадры) : 0.203
Размер потока : 1,98 Гбайт (82%)
Библиотека кодирования : x264 core 146 r2538 121396c
Настройки программы : cabac=1 / ref=9 / deblock=1:-3:-3 / analyse=0x3:0x113 / me=umh / subme=10 / psy=1 / psy_rd=1.00:0.15 / mixed_ref=1 / me_range=32 / chroma_me=1 / trellis=2 / 8x8dct=1 / cqm=0 / deadzone=21,11 / fast_pskip=1 / chroma_qp_offset=-3 / threads=6 / lookahead_threads=1 / sliced_threads=0 / nr=0 / decimate=1 / interlaced=0 / bluray_compat=0 / constrained_intra=0 / bframes=11 / b_pyramid=2 / b_adapt=2 / b_bias=0 / direct=1 / weightb=1 / open_gop=0 / weightp=2 / keyint=230 / keyint_min=22 / scenecut=40 / intra_refresh=0 / rc_lookahead=40 / rc=crf / mbtree=0 / crf=19.0 / qcomp=0.60 / qpmin=0 / qpmax=69 / qpstep=4 / vbv_maxrate=40000 / vbv_bufsize=50000 / crf_max=0.0 / nal_hrd=none / filler=0 / ip_ratio=1.40 / pb_ratio=1.30 / aq=1:1.00
Язык : English
Default : Да
Forced : Нет
DURATION : 01:39:01.842000000
NUMBER_OF_FRAMES : 142319
NUMBER_OF_BYTES : 2178881773
_STATISTICS_WRITING_APP : mkvmerge v8.2.0 ('World of Adventure') 64bit
_STATISTICS_WRITING_DATE_UTC : 2015-08-01 13:46:32
_STATISTICS_TAGS : BPS DURATION NUMBER_OF_FRAMES NUMBER_OF_BYTES

Аудио #1
Идентификатор : 2
Формат : AC-3
Формат/Информация : Audio Coding 3
Расширение режима : CM (complete main)
Параметр Endianness формата : Big
Идентификатор кодека : A_AC3
Продолжительность : 1 ч. 39 м.
Вид битрейта : Постоянный
Битрейт : 384 Кбит/сек
Каналы : 6 каналов
Расположение каналов : Front: L C R, Side: L R, LFE
Частота : 48,0 КГц
Метод сжатия : С потерями
Размер потока : 272 Мбайт (11%)
Заголовок : DUB
Язык : Russian
Default : Да
Forced : Нет

Аудио #2
Идентификатор : 3
Формат : AC-3
Формат/Информация : Audio Coding 3
Расширение режима : CM (complete main)
Параметр Endianness формата : Big
Идентификатор кодека : A_AC3
Продолжительность : 1 ч. 39 м.
Вид битрейта : Постоянный
Битрейт : 192 Кбит/сек
Каналы : 2 канала
Расположение каналов : Front: L R
Частота : 48,0 КГц
Метод сжатия : С потерями
Размер потока : 136 Мбайт (5%)
Заголовок : Original
Язык : English
Default : Нет
Forced : Нет

Текст #1
Идентификатор : 4
Формат : UTF-8
Идентификатор кодека : S_TEXT/UTF8
Идентификатор кодека/Информация : UTF-8 Plain Text
Заголовок : русский
Язык : Russian
Default : Нет
Forced : Нет

Текст #2
Идентификатор : 5
Формат : UTF-8
Идентификатор кодека : S_TEXT/UTF8
Идентификатор кодека/Информация : UTF-8 Plain Text
Заголовок : английский
Default : Нет
Forced : Нет
pb.wtf



Скачать Дракула 2000 через торрент http://i71.fastpic.ru/big/2015/0802/8a/8888144d93c57aedc2fe164ee43d218a.jpg Скачать фильм Дракула 2000 через торрент бесплантно в хорошем качестве Описание: Банда воров, оснащённых по последнему слову техники, проникает в хранилище известного лондонского антиквара Ван Хелсинга. ... 8.8 10 8
Торрент: Зарегистрирован [2015-08-02 06:14] · скачан: 176 раз
Статус: √ проверено
Размер: 2.43 GB
Как cкачать? Как скачать Дракула 2000 через торрент | qTorrent

% Раздел Тема Автор DL S | L
Фильмы [HD 720p, 1080p] (Хороший звук DUB, MVO) [ 9.81 GB ] Дракула 2000 / Dracula 2000 [2000 BDRip 1080p by msltel] DUB msltel Скачать
1 | 0
Фильмы [HD 720p, 1080p] (Хороший звук DUB, MVO) [ 3.83 GB ] Дракула 2000 / Dracula 2000 [2000 BDRip 720p by msltel] DUB msltel Скачать
1 | 0


>> Регистрируемся здесь <<






Отзывы и комментарии о схеме читаем и пишем здесь: ---> Отзывы и комментарии о схеме

Новые благодарочки в телеграм довольных пользователей:
скриншот   скриншот   скриншот   скриншот   скриншот

02-08-2015 06:29 Дракула 2000 Скачать торрент  

Спасибо большое, забираюpb.wtf



    Дорогой пользователь! Огромная просьба, поблагодарите релизера, оцените раздачу и оставьте свои комментарий, если Вы скачали Дракула 2000 через торрент бесплатно! Внесите свою лепту в развитие PiratBit!
    Комментировать посты могут только пользователи прошедшие не сложную регистрацию
    Показать сообщения:    

    Дракула 2000 через торрент
    Скачать бесплатно Дракула 2000
    Дракула 2000 скачать торрент
    Дракула 2000 смотреть онлайн
    Cкачать фильм Дракула 2000 бесплатно
    Дракула 2000 скачать торрент в хорошем качестве
    Дракула 2000 смотреть онлайн бесплатно в хорошем качестве


    Вы не можете начинать темы
    Вы не можете отвечать на сообщения
    Вы не можете редактировать свои сообщения
    Вы не можете удалять свои сообщения
    Вы не можете голосовать в опросах
    Вы не можете прикреплять файлы к сообщениям
    Вы можете скачивать файлы