Ссылка на приватное зеркало всего за 1$. Внимание количество ограничено!!!

iTunes

1+1

iTunes

мы

WEB-DL

1

iTunes

Чернобыль

iTunes

Ральф против интернета

Лицензия

ПШазам

Лицензия

Оно 2

Лицензия

30
pack

Вам бонус

ВАЖНО

!!Акция!!

Alien_RageХит недели

RePack

Resident Evil 21

ИГРА 18+

pack

RePack

jed

!!Акция!!

Alien_Rage

RePack

fifa19

RePack

Assassins Creed: Odyssey

RePack

NEED FOR SPEED™ PAYBACK

3 сезон

9 сезон

Бесстыжие 9 сезон

Все сериалы

все сериалы на PB.wtf

RePack

FAR CRY 5
Ребята, катастрофически не хватает 1900р. для оплаты серверов за Октябрь (всвязи с блокировками трафик упал в 3 раза), 1-2р., выручайте.
  

Третий удар (Игорь Савченко) [1948, СССР, военный, DVDRip от AVP Studio] pb.wtf

Третий удар через торрент pb.wtf

Размер: 745 MB | Добавлен: 4 года 4 мес. назад | Торрент скачан:12 раз
Скачать  

02-08-2015 11:28 Третий удар Скачать торрент  

Третий удар
Страна: СССР
Производство: Киевская киностудия

Жанр: военный
Год выпуска: 1948
Продолжительность: 01:46:12

Перевод: Не требуется
Cубтитры: нет
Оригинальная аудиодорожка: русский

Режиссер: Игорь Савченко

В ролях:
Алексей Дикий, Николай Боголюбов, Юрий Шумский, Виктор Станицын, Владимир Головин, Михаил Романов, Иван Переверзев, Сергей Блинников, Марк Бернес, Николай Пишванов...

Описание:
1944 год. Начинается операция по освобождению Крыма под командованием генерала Толбухина. Гитлеровцы не в силах сдержать наступление наших войск и стратегический план «Третьего удара» выполнен: на вершине Сапун-горы водружен красный стяг, освобожден Севастополь, а враги сброшены в Черное море...

Источник: DVD5 R5
Качество видео: DVDRip
Формат видео: AVI
Видео кодек: XviD
Аудио кодек: MP3
Видео: 576x432 (4:3), 25 fps, XviD ~ 843 kbps avg, 0.136 bit/pixel
Аудио: 48 kHz, MP3 2.0, 128 kbps

Раздача от:
Общее
Полное имя : Tretiy.udar.1948.DVDRip-745_[New-team]_by_AVP_Studio.avi
Формат : AVI
Формат/Информация : Audio Video Interleave
Размер файла : 745 Мбайт
Продолжительность : 1 ч. 46 м.
Общий поток : 981 Кбит/сек
Программа кодирования : VirtualDubMod 1.5.10.3 | www.virtualdub-fr.org || (build 2550/release)
Библиотека кодирования : VirtualDubMod build 2550/release

Видео
Идентификатор : 0
Формат : MPEG-4 Visual
Профиль формата : Advanced Simple@L5
Параметр BVOP формата : 1
Параметр QPel формата : Нет
Параметр GMC формата : Без точки перехода
Параметр матрицы формата : Выборочная
Идентификатор кодека : XVID
Идентификатор кодека/Подсказка : XviD
Продолжительность : 1 ч. 46 м.
Битрейт : 843 Кбит/сек
Ширина : 576 пикселей
Высота : 432 пикселя
Соотношение сторон : 4:3
Частота кадров : 25,000 кадров/сек
Цветовое пространство : YUV
Субдискретизация насыщенности : 4:2:0
Битовая глубина : 8 бит
Тип развёртки : Прогрессивная
Метод сжатия : С потерями
Бит/(Пиксели*Кадры) : 0.136
Размер потока : 640 Мбайт (86%)
Библиотека кодирования : XviD 73

Аудио
Идентификатор : 1
Формат : MPEG Audio
Версия формата : Version 1
Профиль формата : Layer 3
Идентификатор кодека : 55
Идентификатор кодека/Подсказка : MP3
Продолжительность : 1 ч. 46 м.
Вид битрейта : Постоянный
Битрейт : 128 Кбит/сек
Каналы : 2 канала
Частота : 48,0 КГц
Метод сжатия : С потерями
Размер потока : 97,2 Мбайт (13%)
Выравнивание : Соединение по промежуткам
Продолжительность промежутка : 40 мс. (1,00 видеокадр)
Время предзагрузки промежутка : 504 мс.
Библиотека кодирования : LAME3.99r
Настройки программы : -m s -V 4 -q 2 -lowpass 17 -b 128
pb.wtf



Скачать Третий удар через торрент http://s017.radikal.ru/i431/1508/cf/2dfa0bc2167e.png Скачать фильм Третий удар через торрент бесплантно в хорошем качестве Описание:1944 год. Начинается операция по освобождению Крыма под командованием генерала Толбухина. Гитлеровцы не в силах сдержать ... 10 10 1
Торрент: Зарегистрирован [2015-08-02 11:28] · скачан: 12 раз
Статус: √ проверено
Размер: 745 MB
Как cкачать? Как скачать Третий удар через торрент | qTorrent

% Раздел Тема Автор DL S | L
Кино СССР [ 1.46 GB ] Третий удар [1948 СССР военный DVDRip-AVC от AVP Studio] AVP Studio Скачать
1 | 0
Кино СССР [ 1.46 GB ] Третий удар [1948 СССР военный DVDRip от AVP Studio] AVP Studio Скачать
1 | 0

28-11-2019 20:33  

Отключить всю рекламу на сайте

    Дорогой пользователь! Огромная просьба, поблагодарите релизера, оцените раздачу и оставьте свои комментарий, если Вы скачали Третий удар через торрент бесплатно! Внесите свою лепту в развитие PiratBit!
    Комментировать посты могут только пользователи прошедшие не сложную регистрацию
    Показать сообщения:    

    Третий удар через торрент
    Скачать бесплатно Третий удар
    Третий удар скачать торрент
    Третий удар смотреть онлайн
    Cкачать фильм Третий удар бесплатно
    Третий удар скачать торрент в хорошем качестве
    Третий удар смотреть онлайн бесплатно в хорошем качестве


    Вы не можете начинать темы
    Вы не можете отвечать на сообщения
    Вы не можете редактировать свои сообщения
    Вы не можете удалять свои сообщения
    Вы не можете голосовать в опросах
    Вы не можете прикреплять файлы к сообщениям
    Вы можете скачивать файлы