Ссылка на приватное зеркало нашего сайта всего за 1$. Внимание количество ограничено!!!

2 сезон

iTunes

1 сезон

1

iTunes

iTunes

iTunes

1 сезон

RePack

30

ИГРА 18+

pack

ВАЖНО

!!Акция!!

Alien_RageХит недели

RePack

MK11
pack

Забери бонус

RePack

jed

!!Акция!!

Alien_Rage

RePack

fifa19

RePack

Assassins Creed: Odyssey

RePack

NEED FOR SPEED™ PAYBACK

4 сезон

9 сезон

Бесстыжие 9 сезон

Все сериалы

все сериалы на PB.wtf

RePack

FAR CRY 5
  

На грани / Man on a Ledge (Асгер Лет / Asger Leth) [2012, триллер, боевик, криминал, BDRip 1080p] DUB, AVO pb.wtf

На грани через торрент pb.wtf

Размер: 11.56 GB | Добавлен: 5 лет 2 мес. назад | Торрент скачан:192 раза
Скачать  

02-08-2015 11:46 На грани Скачать торрент  

На грани / Man on a Ledge
«Только невиновного можно загнать так высоко»


Год выпуска: 2012
Страна: США
Жанр: триллер, боевик, криминал
Продолжительность: 01:42:23
Перевод: Дублированный - [Лицензия], Авторский (одноголосый)[Андрей Гаврилов]
Субтитры: русские (Voronin), английские (SDH), английские
Режиссер: Асгер Лет
В ролях: Сэм Уортингтон , Элизабет Бэнкс , Джейми Белл , Дженезис Родригез , Эд Харрис , Энтони Маки , Титус Уэлливер , Эдвард Бёрнс , Уильям Сэдлер , Кира Седжвик , Терри Серпико , Мэнди Гонзалес
Описание:
Экс-полицейский, обвиняемый в преступлении, которого он якобы не совершал, собирается покончить жизнь самоубийством, сбросившись с крыши одного из отелей на Манхэттене. С ним в переговоры вступает психолог нью-йоркской полиции. Напряжение нарастает с каждой минутой, на площадь стягиваются наряды спецподразделений, толпа оглашается женскими криками. А в это время на месте происшествия, прямо под носом у полиции, совершается грандиозное ограбление века: неизвестные похищают уникальные бриллианты...

PG-13 - Детям до 13 лет просмотр не желателен
Качество: BDRip 1080p
Контейнер (Расширение): MKV
Видео кодек: AVC
Аудио кодек: AC3
Видео: 1920x800, 14250 Кбит/сек, 23,976 кадр/сек, 0,387 Бит/[Пиксели*Кадры]
Аудио №1: русский / AC3 / 5.1 / 48 kHz / 640 kbps / 16 bit |Дублированный|
Аудио №2: русский / AC3 / 5.1 / 48 kHz / 640 kbps / 16 bit |Авторский, Андрей Гаврилов|
Аудио №3: английский / AC3 / 5.1 / 48 kHz / 640 kbps / 16 bit
Навигация по главам(Чаптеры): есть
Видеоряд от DONРелиз от: Сообщество:

Код:

Format                                   : Matroska
Format version                           : Version 2
File size                                : 11.6 GiB
Duration                                 : 1h 42mn
Overall bit rate                         : 16.2 Mbps
Movie name                               : Na grani.(2012).BDRip,1080p.[denis100]
Encoded date                             : UTC 2015-08-02 11:02:14
Writing application                      : mkvmerge v5.8.0 ('No Sleep / Pillow') built on Sep  2 2012 15:37:04
Writing library                          : libebml v1.2.3 + libmatroska v1.3.0

Video
ID                                       : 1
Format                                   : AVC
Format/Info                              : Advanced Video Codec
Format profile                           : High@L4.1
Format settings, CABAC                   : Yes
Format settings, ReFrames                : 5 frames
Codec ID                                 : V_MPEG4/ISO/AVC
Duration                                 : 1h 42mn
Bit rate                                 : 14.3 Mbps
Width                                    : 1 920 pixels
Height                                   : 800 pixels
Display aspect ratio                     : 2.40:1
Frame rate mode                          : Variable / Constant
Frame rate                               : 23.976 fps
Color space                              : YUV
Chroma subsampling                       : 4:2:0
Bit depth                                : 8 bits
Scan type                                : Progressive
Bits/(Pixel*Frame)                       : 0.387
Stream size                              : 9.95 GiB (86%)
Title                                    : Na grani.(2012).BDRip,1080p.[denis100]
Writing library                          : x264 core 125 r2200 999b753
Encoding settings                        : cabac=1 / ref=5 / deblock=1:-3:-3 / analyse=0x3:0x133 / me=tesa / subme=9 / psy=1 / psy_rd=1.15:0.15 / mixed_ref=1 / me_range=32 / chroma_me=1 / trellis=1 / 8x8dct=1 / cqm=0 / deadzone=21,11 / fast_pskip=0 / chroma_qp_offset=-3 / threads=12 / lookahead_threads=2 / sliced_threads=0 / nr=0 / decimate=1 / interlaced=0 / bluray_compat=0 / constrained_intra=0 / bframes=7 / b_pyramid=2 / b_adapt=2 / b_bias=0 / direct=1 / weightb=1 / open_gop=0 / weightp=2 / keyint=250 / keyint_min=23 / scenecut=40 / intra_refresh=0 / rc_lookahead=40 / rc=2pass / mbtree=0 / bitrate=14250 / ratetol=1.0 / qcomp=0.75 / qpmin=0 / qpmax=50 / qpstep=4 / cplxblur=20.0 / qblur=0.5 / vbv_maxrate=50000 / vbv_bufsize=50000 / nal_hrd=none / ip_ratio=1.40 / pb_ratio=1.30 / aq=1:0.80
Language                                 : English
Default                                  : Yes
Forced                                   : No

Audio #1
ID                                       : 2
Format                                   : AC-3
Format/Info                              : Audio Coding 3
Mode extension                           : CM (complete main)
Codec ID                                 : A_AC3
Duration                                 : 1h 42mn
Bit rate mode                            : Constant
Bit rate                                 : 640 Kbps
Channel(s)                               : 6 channels
Channel positions                        : Front: L C R, Side: L R, LFE
Sampling rate                            : 48.0 KHz
Bit depth                                : 16 bits
Compression mode                         : Lossy
Stream size                              : 469 MiB (4%)
Title                                    : Дублированный
Language                                 : Russian
Default                                  : Yes
Forced                                   : No

Audio #2
ID                                       : 3
Format                                   : AC-3
Format/Info                              : Audio Coding 3
Mode extension                           : CM (complete main)
Codec ID                                 : A_AC3
Duration                                 : 1h 42mn
Bit rate mode                            : Constant
Bit rate                                 : 640 Kbps
Channel(s)                               : 6 channels
Channel positions                        : Front: L C R, Side: L R, LFE
Sampling rate                            : 48.0 KHz
Bit depth                                : 16 bits
Compression mode                         : Lossy
Stream size                              : 469 MiB (4%)
Title                                    : Авторский, А. Гаврилов
Language                                 : Russian
Default                                  : No
Forced                                   : No

Audio #3
ID                                       : 4
Format                                   : AC-3
Format/Info                              : Audio Coding 3
Mode extension                           : CM (complete main)
Codec ID                                 : A_AC3
Duration                                 : 1h 42mn
Bit rate mode                            : Constant
Bit rate                                 : 640 Kbps
Channel(s)                               : 6 channels
Channel positions                        : Front: L C R, Side: L R, LFE
Sampling rate                            : 48.0 KHz
Bit depth                                : 16 bits
Compression mode                         : Lossy
Stream size                              : 469 MiB (4%)
Language                                 : English
Default                                  : No
Forced                                   : No

Text #1
ID                                       : 5
Format                                   : UTF-8
Codec ID                                 : S_TEXT/UTF8
Codec ID/Info                            : UTF-8 Plain Text
Title                                    : Voronin
Language                                 : Russian
Default                                  : No
Forced                                   : No

Text #2
ID                                       : 6
Format                                   : UTF-8
Codec ID                                 : S_TEXT/UTF8
Codec ID/Info                            : UTF-8 Plain Text
Title                                    : SDH
Language                                 : English
Default                                  : No
Forced                                   : No

Text #3
ID                                       : 7
Format                                   : UTF-8
Codec ID                                 : S_TEXT/UTF8
Codec ID/Info                            : UTF-8 Plain Text
Language                                 : English
Default                                  : No
Forced                                   : No

Menu
00:00:00.000                             : en:00:00:00.000
00:04:04.744                             : en:00:04:04.744
00:08:02.315                             : en:00:08:02.315
00:13:43.364                             : en:00:13:43.364
00:17:10.029                             : en:00:17:10.029
00:25:02.876                             : en:00:25:02.876
00:30:20.902                             : en:00:30:20.902
00:37:03.430                             : en:00:37:03.430
00:44:58.529                             : en:00:44:58.529
00:50:51.674                             : en:00:50:51.674
00:55:50.013                             : en:00:55:50.013
01:00:18.740                             : en:01:00:18.740
01:06:13.511                             : en:01:06:13.511
01:11:18.816                             : en:01:11:18.816
01:15:50.963                             : en:01:15:50.963
01:20:46.884                             : en:01:20:46.884
01:25:06.977                             : en:01:25:06.977
01:32:40.305                             : en:01:32:40.305

pb.wtf



Скачать На грани через торрент http://i72.fastpic.ru/big/2015/0802/bc/a99d186624c732ec54810ac52e71a4bc.png Скачать фильм На грани через торрент бесплантно в хорошем качестве Описание:Экс-полицейский, обвиняемый в преступлении, которого он якобы не совершал, собирается покончить жизнь самоубийством, сбросившись с ... 9.4 10 10
Info! Золотая раздача, скачанное не засчитывается.
Торрент: Зарегистрирован [2015-08-02 11:46] · скачан: 192 раз
Статус: √ проверено
Размер: 11.56 GB
Как cкачать? Как скачать На грани через торрент | qTorrent

% Раздел Тема Автор DL S | L
Ultra HD (UHD: 2K, 4K, 8K) — видео сверхвысокой чёткости [ 61.12 GB ] На грани / Man on a Ledge [2012 UHD Blu-ray 2160p] [Dolby Vision] DUB [] + AVO [А. Гаврилов] sheker187 Скачать
1 | 0
Ultra HD (UHD: 2K, 4K, 8K) — видео сверхвысокой чёткости [ 26.52 GB ] На грани / Man on a Ledge [2012 UHD BDRip 2160p] DUB [] + AVO [А. Гаврилов] sheker187 Скачать
1 | 0
Ultra HD (UHD: 2K, 4K, 8K) — видео сверхвысокой чёткости [ 50.96 GB ] На грани / Man on a Ledge [2012 UHD BDRemux 2160p] DUB [] + AVO [А. Гаврилов] sheker187 Скачать
1 | 0
Фильмы [HD 720p, 1080p] (Хороший звук DUB, MVO) [ 6.37 GB ] На грани / Man on a Ledge [2012 BDRip 720p] DUB AVO potroks Скачать
1 | 0

28-11-2019 20:33  

Отключить всю рекламу на сайте

08-08-2015 23:35 На грани Скачать торрент  

Сойдет на 1 разpb.wtf



    Дорогой пользователь! Огромная просьба, поблагодарите релизера, оцените раздачу и оставьте свои комментарий, если Вы скачали На грани через торрент бесплатно! Внесите свою лепту в развитие PiratBit!
    Комментировать посты могут только пользователи прошедшие не сложную регистрацию
    Показать сообщения:    

    На грани через торрент
    Скачать бесплатно На грани
    На грани скачать торрент
    На грани смотреть онлайн
    Cкачать фильм На грани бесплатно
    На грани скачать торрент в хорошем качестве
    На грани смотреть онлайн бесплатно в хорошем качестве


    Вы не можете начинать темы
    Вы не можете отвечать на сообщения
    Вы не можете редактировать свои сообщения
    Вы не можете удалять свои сообщения
    Вы не можете голосовать в опросах
    Вы не можете прикреплять файлы к сообщениям
    Вы можете скачивать файлы