Ссылка на приватное зеркало нашего сайта всего за 1$. Внимание количество ограничено!!!

2 сезон

iTunes

1 сезон

1

2 сезон

2 сезон

iTunes

1 сезон

RePack

30

Ultimate

ВАЖНО

ИГРА 18+

pack

RePack

MK11
pack

Забери бонус

RePack

jed

!!Акция!!

Alien_Rage

RePack

fifa19

RePack

Assassins Creed: Odyssey

RePack

NEED FOR SPEED™ PAYBACK

4 сезон

9 сезон

Бесстыжие 9 сезон

Все сериалы

все сериалы на PB.wtf

RePack

FAR CRY 5
  

Боевые свиньи / War Pigs (Райан Литтл) [2015 г., боевик, военный, HDRip, Любительский двухголосый] pb.wtf

Боевые свиньи через торрент pb.wtf

Размер: 1.45 GB | Добавлен: 5 лет 3 мес. назад | Торрент скачан:472 раза
Скачать  

02-08-2015 12:00 Боевые свиньи Скачать торрент  

Боевые свиньи / War Pigs
Год выпуска: 2015
Страна: США / Schuetzle Company Productions, VMI Worldwide, Verdi Productions
Жанр: боевик, военный
Продолжительность: 01:31:29
Перевод: Любительский двухголосый [Lucky Strike]

Режиссер: Райан Литтл
Продюссер: Люк Дэниелс, Стивен А. Ли, Люк Шуцле
Сценарий: Адам Эмерсон, Люк Шуцле, Эндрю Кайтлингер

Премьера в мире: 17 мая 2015

IMDB


В ролях: Микки Рурк, Дольф Лундгрен, Люк Госс, Райан Келли, Ной Сеган, Чак Лиделл, К.С. Клайд, Джейк Стормоен, Маклейн Нельсон, Angie Papanikolas

Описание: Боевые свиньи — спецподразделение, цель которого — уничтожить нацистов там, где они меньше всего ожидают удара. Очередная запланированная операция при продуктивном выполнении должна помочь и укрепить силы боевых отрядов. Её участники – это профессионалы своего дела, отчаянные члены группировки под звучным названием «Боевые свиньи». Задача им предстоит весьма непростая: втесаться в круги врага, проникнуть в самый глубокий тыл противоборствующей армии и при этом никак не выдать своё истинное происхождение и реальные цели. Руководство даёт команде «Боевых свиней» решительную установку: во что бы то ни стало, любой ценой уничтожить нацистов даже ценой собственного здоровья, свободы или даже жизни...

Качество: HDRip
Формат: AVI
Видео кодек: XviD
Аудио кодек: AC3
Видео: XviD, 720x400 (16:9), 1 883 kbps, 23.976 fps, 0.273 b/px
Аудио#1: Русский АС3, 2 ch, 384 kbps, 48 000 Hz
скриншот  скриншот  скриншот  

Общее
Полное имя : E:\War.Pigs.2015.L2.HDRip.avi
Формат : AVI
Формат/Информация : Audio Video Interleave
Размер файла : 1,45 Гбайт
Продолжительность : 1 ч. 31 м.
Общий поток : 2276 Кбит/сек
Название фильма : War.Pigs.2015.L2.HDRip.ELEKTRI4KA.uniongang.tv
Режиссёр : Carl Gaus
Программа кодирования : VirtualDubMod 1.5.10.3 | www.virtualdub-fr.org || (build 2550/release)
Правообладатель : UNIONGANG&RUSTORRENTS

Видео
Идентификатор : 0
Формат : MPEG-4 Visual
Профиль формата : Advanced Simple@L5
Параметр BVOP формата : 2
Параметр QPel формата : Нет
Параметр GMC формата : Без точки перехода
Параметр матрицы формата : Default (MPEG)
Идентификатор кодека : XVID
Идентификатор кодека/Подсказка : XviD
Продолжительность : 1 ч. 31 м.
Битрейт : 1883 Кбит/сек
Ширина : 720 пикселей
Высота : 400 пикселей
Соотношение сторон : 16:9
Частота кадров : 23,976 кадра/сек
Цветовое пространство : YUV
Субдискретизация насыщенности : 4:2:0
Битовая глубина : 8 бит
Тип развёртки : Прогрессивная
Метод сжатия : С потерями
Бит/(Пиксели*Кадры) : 0.273
Размер потока : 1,20 Гбайт (83%)
Библиотека кодирования : XviD 1.2.1 (UTC 2008-12-04)

Аудио
Идентификатор : 1
Формат : AC-3
Формат/Информация : Audio Coding 3
Расширение режима : CM (complete main)
Параметр Endianness формата : Big
Идентификатор кодека : 2000
Продолжительность : 1 ч. 31 м.
Вид битрейта : Постоянный
Битрейт : 384 Кбит/сек
Каналы : 2 канала
Расположение каналов : Front: L R
Частота : 48,0 КГц
Битовая глубина : 16 бит
Метод сжатия : С потерями
Размер потока : 251 Мбайт (17%)
Выравнивание : Разделение по промежуткам
Продолжительность промежутка : 42 мс. (1,00 видеокадр)
Время предзагрузки промежутка : 500 мс.


Боевые свиньи скачать торрент


pb.wtf



Скачать Боевые свиньи через торрент http://pic.kartinco.top/images/11/n3spx.jpg Скачать фильм Боевые свиньи через торрент бесплантно в хорошем качестве Описание: Боевые свиньи — спецподразделение, цель которого — уничтожить нацистов там, где они меньше всего ожидают удара. Очередная ... 10 10 22
Торрент: Зарегистрирован [2015-08-02 12:00] · скачан: 472 раз
Статус: T временная
Размер: 1.45 GB
Как cкачать? Как скачать Боевые свиньи через торрент | qTorrent

28-11-2019 20:33  

Отключить всю рекламу на сайте

02-08-2015 13:49 Боевые свиньи Скачать торрент  

Это что пародия на бесславных ублюдков тарантино ??pb.wtf



04-08-2015 07:05 Боевые свиньи Скачать торрент  

Фильм редкостный отстой. Автору-спасибоpb.wtf



05-08-2015 05:34 Боевые свиньи Скачать торрент  

видимо большая нужда заставляет играть в таком редкостном г.....еpb.wtf



06-08-2015 08:03 Боевые свиньи Скачать торрент  

да уж-зануднейший фильмец-да простит меня старичок лунгрен-я уж не говорю за рурка-после всех этих операций и ботекса морда расплылась как пельмень-вообще не узнатьpb.wtf



    Дорогой пользователь! Огромная просьба, поблагодарите релизера, оцените раздачу и оставьте свои комментарий, если Вы скачали Боевые свиньи через торрент бесплатно! Внесите свою лепту в развитие PiratBit!
    Комментировать посты могут только пользователи прошедшие не сложную регистрацию
    Показать сообщения:    

    Боевые свиньи через торрент
    Скачать бесплатно Боевые свиньи
    Боевые свиньи скачать торрент
    Боевые свиньи смотреть онлайн
    Cкачать фильм Боевые свиньи бесплатно
    Боевые свиньи скачать торрент в хорошем качестве
    Боевые свиньи смотреть онлайн бесплатно в хорошем качестве


    Вы не можете начинать темы
    Вы не можете отвечать на сообщения
    Вы не можете редактировать свои сообщения
    Вы не можете удалять свои сообщения
    Вы не можете голосовать в опросах
    Вы не можете прикреплять файлы к сообщениям
    Вы можете скачивать файлы