Доктор Стрэндж

Лицензия

Добыча

Дубляж

Уэнсдэй

1 сезон

Тор

Дубляж

В эфире

Дубляж

Там, где раки поют

MVO

Властелин колец

1 сезон

Deluxe

pack

Рекомендуем

30

Пиратка

ВАЖНО

ВАЖНО

Ghostwire

Пиратка

jed

RePack

nioh2

RePack

RDR2

RePack

NEED FOR SPEED™ PAYBACK

RePack

скачать торрент

Кинопоиск HD

Острые козырьки 6 сезон

6 сезон

FAR CRY 6

RePack

скачать торрент

Лицензия

скачать торрент

MVO

1

1 сезон

скачать торрент

1 сезон

скачать торрент

Лицензия

  

Жаркое американское лето: Первый день лагеря / Wet Hot American Summer: First Day of Camp/ Сезон: 1 / Серии 1-8 из 8 (Дэвид Уэйн / David Wain) [2015, США, комедия, WEBRip] MVO [NewStudio]

Жаркое американское лето: Первый день лагеря через торрент pb.wtf

Размер: 2.73 GB | Добавлен: 7 лет 4 мес. назад | Торрент скачан:137 раз
Смотреть онлайн | Скачать   

03-08-2015 04:31 Жаркое американское лето: Первый день лагеря Скачать торрент  

Жаркое американское лето: Первый день лагеря / Wet Hot American Summer: First Day of Camp


  • Год выпуска: 2015
  • Страна: США
  • Жанр: комедия
  • Продолжительность: 00:27:43 (Серия)
  • Перевод: Профессиональный многоголосый закадровый [NewStudio]

  • Режиссер: Дэвид Уэйн / David Wain
  • В ролях:

    Джанин Гарофало (Beth), Джейсон Шварцман (Greg), Пол Радд (Andy), Маргерит Моро (Katie), Кристофер Мелони (Gene), Кен Марино (Victor Kulak), Джо Ло Трульо (Neil), Эми Полер (Susie), Брэдли Купер (Ben), Молли Шеннон (Gail von Kleinenstein), Майкл Йен Блэк (McKinley), Майкл Шоуолтер (Alan Shemper)

  • Описание:
    Действие сериала разворачивается в 1981 году. Главные герои сериала - обитатели летнего лагеря, которым предстоит пережить самые непростые каникулы в их жизни...
  • Рейтинг:



  • Качество: WEBRip
  • Формат: :AVI
  • Видео кодек: XviD
  • Аудио кодек: MP3
  • Видео: 720x384 (1.875), 1491 kbps, 23,976 fps, 0,225 bpp
  • Аудио №1: Русский 2.0 / 48 kHz / 132 kbps
  • Аудио №2: Английский 2.0 / 48 kHz / 128 kbps
  • Релиз от: GEKADOL

    Код:

    Внимание! Раздача ведётся путём добавления новых серий; при каждом добавлении создаётся новый торрент. Чтобы начать докачку новой серии, пользователям необходимо сделать следующее:
    (1) остановить скачивание,
    (2) удалить старый торрент у себя из клиента (старые серии удалять не надо),
    (3) скачать новый торрент и запустить его у себя в клиенте вместо старого, при этом указать клиенту путь в старую папку куда и должно происходить скачивание новых серий.
    Ваш клиент при этом должен произвести хеширование (проверку) старой папки (если не производит сам - помогите ему сделать это), и будет докачивать только те серии которых у вас ещё нет. Старые серии при этом не удаляются, а продолжают раздаваться!
    Eсли вы уже удалили старые серии, то предотвратить повторную закачку старых серий можно, отжав галочку в соответсвующих местах при запуске нового торрента. По возможности, желательно не удалять старые серии как можно дольше чтобы релизёр не столько продолжал раздавать старые серии, а смог сконцентрироваться на новых.


    Код:

    General
    Complete name                            : D:\Фильмы\Wet.Hot.American.Summer.s01.WEBRip.NewStudio.TV\Wet.Hot.American.Summer.s01e07.WEBRip.NewStudio.TV.avi
    Format                                   : AVI
    Format/Info                              : Audio Video Interleave
    File size                                : 351 MiB
    Duration                                 : 27mn 43s
    Overall bit rate mode                    : Variable
    Overall bit rate                         : 1 770 Kbps
    Writing application                      : VirtualDubMod 1.5.10.2 (build 2540/release)
    Writing library                          : VirtualDubMod build 2540/release

    Video
    ID                                       : 0
    Format                                   : MPEG-4 Visual
    Format profile                           : Advanced [email protected]
    Format settings, BVOP                    : No
    Format settings, QPel                    : No
    Format settings, GMC                     : No warppoints
    Format settings, Matrix                  : Default (H.263)
    Codec ID                                 : XVID
    Codec ID/Hint                            : XviD
    Duration                                 : 27mn 43s
    Bit rate                                 : 1 491 Kbps
    Width                                    : 720 pixels
    Height                                   : 384 pixels
    Display aspect ratio                     : 1.875
    Frame rate                               : 23.976 fps
    Color space                              : YUV
    Chroma subsampling                       : 4:2:0
    Bit depth                                : 8 bits
    Scan type                                : Progressive
    Compression mode                         : Lossy
    Bits/(Pixel*Frame)                       : 0.225
    Stream size                              : 296 MiB (84%)
    Writing library                          : XviD 73

    Audio #1
    ID                                       : 1
    Format                                   : MPEG Audio
    Format version                           : Version 1
    Format profile                           : Layer 3
    Mode                                     : Joint stereo
    Mode extension                           : MS Stereo
    Codec ID                                 : 55
    Codec ID/Hint                            : MP3
    Duration                                 : 27mn 43s
    Bit rate mode                            : Variable
    Bit rate                                 : 133 Kbps
    Channel(s)                               : 2 channels
    Sampling rate                            : 48.0 KHz
    Compression mode                         : Lossy
    Stream size                              : 26.4 MiB (8%)
    Alignment                                : Aligned on interleaves
    Interleave, duration                     : 24 ms (0.58 video frame)
    Interleave, preload duration             : 503 ms

    Audio #2
    ID                                       : 2
    Format                                   : MPEG Audio
    Format version                           : Version 1
    Format profile                           : Layer 3
    Mode                                     : Joint stereo
    Mode extension                           : MS Stereo
    Codec ID                                 : 55
    Codec ID/Hint                            : MP3
    Duration                                 : 27mn 43s
    Bit rate mode                            : Constant
    Bit rate                                 : 128 Kbps
    Channel(s)                               : 2 channels
    Sampling rate                            : 48.0 KHz
    Compression mode                         : Lossy
    Stream size                              : 25.4 MiB (7%)
    Alignment                                : Aligned on interleaves
    Interleave, duration                     : 42 ms (1.00 video frame)
    Interleave, preload duration             : 504 ms
    Writing library                          : LAME3.90.3




    Скриншоты:


    Раздача ведётся путём добавления новых серий. Добавлена 8 серия (03.08.2015).Просьба перекачать торрент файл.




  • Скачать Жаркое американское лето: Первый день лагеря через торрент http://i69.fastpic.ru/big/2015/0803/0f/204a2dd12ce795419b5f643780d95d0f.jpeg Скачать, смотреть онлайн Жаркое американское лето: Первый день лагеря бесплантно в хорошем качестве Описание: Действие сериала разворачивается в 1981 году. Главные герои сериала - обитатели летнего лагеря, которым предстоит пережить самые ... 7.8 10 6
    Info! Золотая раздача, скачанное не засчитывается.
    Торрент: Зарегистрирован [2015-08-03 09:26] · скачан: 137 раз
    Статус: √ проверено
    Размер: 2.73 GB
    Как cкачать? Как скачать Жаркое американское лето: Первый день лагеря через торрент | UTorrent




    Последний раз редактировалось: GEKADOL (2015-08-03 09:26), всего редактировалось 1 раз

    28-11-2019 20:33  


    Отключить вcю реклaмy на сайте, в т.ч. и в плеере онлайн просмотра!

    03-08-2015 05:14 Жаркое американское лето: Первый день лагеря Скачать торрент  

    Вот состав актёров нравится,надо скачать глянуть.



      Дорогой пользователь! Огромная просьба, поблагодарите релизера, оцените раздачу и оставьте свои комментарий, если Вы скачали Жаркое американское лето: Первый день лагеря через торрент бесплатно!!
      Комментировать посты могут только пользователи прошедшие не сложную регистрацию
      Показать сообщения:    


      Жаркое американское лето: Первый день лагеря через торрент
      Скачать бесплатно Жаркое американское лето: Первый день лагеря
      Жаркое американское лето: Первый день лагеря скачать торрент
      Жаркое американское лето: Первый день лагеря смотреть онлайн
      Cкачать фильм Жаркое американское лето: Первый день лагеря бесплатно
      Жаркое американское лето: Первый день лагеря скачать торрент в хорошем качестве
      Жаркое американское лето: Первый день лагеря смотреть онлайн бесплатно в хорошем качестве
      Вы не можете начинать темы
      Вы не можете отвечать на сообщения
      Вы не можете редактировать свои сообщения
      Вы не можете удалять свои сообщения
      Вы не можете голосовать в опросах
      Вы не можете прикреплять файлы к сообщениям
      Вы можете скачивать файлы
      Жаркое американское лето: Первый день лагеря / Wet Hot American Summer: First Day of Camp/ Сезон: 1 / Серии 1-8 из 8 [2015, США, комедия, WEBRip] MVO [NewStudio] смотреть онлайн, скачать торрент picoco.icu