Death Stranding+DLC+АВТОАКТИВАЦИЯ

iTunes

iTunes

iTunes

1

iTunes

iTunes

iTunes

iTunes

iTunes

30
pack

$ от Little Big

ВАЖНО

!!Акция!!

Alien_RageХит недели

RePack

Resident Evil 21

ИГРА 18+

pack

RePack

jed

!!Акция!!

Alien_Rage

RePack

fifa19

RePack

Assassins Creed: Odyssey

RePack

NEED FOR SPEED™ PAYBACK

4 сезон

9 сезон

Бесстыжие 9 сезон

Все сериалы

все сериалы на PB.wtf

RePack

FAR CRY 5
  

Скажи / Tell (Дж.М.Р. Люна) [2014, боевик, драма, криминал, WEB-DL 720p, Профессиональный (многоголосый)] pb.wtf

Скажи через торрент pb.wtf

Размер: 2.85 GB | Добавлен: 4 года 11 мес. назад | Торрент скачан:203 раза
Скачать  

03-08-2015 05:30 Скажи Скачать торрент  

Скажи / Tell


Год выпуска: 2014
Страна: США
Жанр: боевик, драма, криминал
Продолжительность: 01:28:54
Перевод: Профессиональный (многоголосый) [Официальный звук]
Субтитры: английские
Режиссер: Дж.М.Р. Люна
В ролях:

Майло Вентимилья (Tell), Кэти Сакхофф (Beverly), Джейсон Ли (Ray), Роберт Патрик (Ashton), Алан Тьюдик (Morton), Джон Майкл Хиггинс (Huffman), Фэйзон Лав (Dwight Johnson), Оскар Нунез (Father Jack), Питер Рейнерт (Malcolm), Моника Янг (Stephanie), Джозеф О’Нилл (Joe), Гейдж Кристофер (William Tell)

Описание:
Мелкому мошеннику Этану Теллу удается сорвать куш в миллион долларов и оставить других с носом. Но полиция ловит его и после отсидки, он решает жить честно. Но его продолжают преследовать коррумпированные полицейские, офицер по досрочному освобождению, участники ограбления, даже жена. У всех один вопрос: «Где деньги?»
Рейтинг:

MPAA: R - Лицам до 17 лет обязательно присутствие взрослого

Качество: WEB-DL 720p
Формат: MKV
Видео кодек: AVC
Аудио кодек: AC3
Видео: AVC, 1280x528 (2.40:1), 3914 kbps, 23,976 fps, 0,242 bpp
Аудио №1: русский / AC3 / 2.0 / 48 kHz / 192 kbps / 16 bit ||
Аудио №2: английский / AC3 / 5.1 / 48 kHz / 384 kbps / 16 bit
Навигация по главам: есть

Код:

General
Unique ID                                : 218496182579080707669769415865836593305 (0xA460D58606D6276BBC3EF02613F16099)
Complete name                            : E:\Films\Skazhi.2014.P.WEBDL.720p.mkv
Format                                   : Matroska
Format version                           : Version 4 / Version 2
File size                                : 2.85 GiB
Duration                                 : 1h 28mn
Overall bit rate                         : 4 582 Kbps
Encoded date                             : UTC 2015-08-02 08:27:46
Writing application                      : mkvmerge v8.2.0 ('World of Adventure') 64bit
Writing library                          : libebml v1.3.1 + libmatroska v1.4.2
DURATION                                 : 01:28:54.528000000
NUMBER_OF_FRAMES                         : 166704
NUMBER_OF_BYTES                          : 128028672
_STATISTICS_WRITING_APP                  : mkvmerge v8.2.0 ('World of Adventure') 64bit
_STATISTICS_WRITING_DATE_UTC             : 2015-08-02 08:27:46
_STATISTICS_TAGS                         : BPS DURATION NUMBER_OF_FRAMES NUMBER_OF_BYTES

Video
ID                                       : 1
Format                                   : AVC
Format/Info                              : Advanced Video Codec
Format profile                           : Main@L3.1
Format settings, CABAC                   : No
Format settings, ReFrames                : 2 frames
Codec ID                                 : V_MPEG4/ISO/AVC
Duration                                 : 1h 28mn
Bit rate                                 : 3 915 Kbps
Width                                    : 1 280 pixels
Height                                   : 528 pixels
Display aspect ratio                     : 2.40:1
Frame rate                               : 23.976 fps
Color space                              : YUV
Chroma subsampling                       : 4:2:0
Bit depth                                : 8 bits
Scan type                                : Progressive
Bits/(Pixel*Frame)                       : 0.242
Stream size                              : 2.43 GiB (85%)
Language                                 : English
Default                                  : Yes
Forced                                   : No
Color primaries                          : BT.709-5, BT.1361, IEC 61966-2-4, SMPTE RP177
Transfer characteristics                 : BT.709-5, BT.1361
Matrix coefficients                      : BT.709-5, BT.1361, IEC 61966-2-4 709, SMPTE RP177

Audio #1
ID                                       : 2
Format                                   : AC-3
Format/Info                              : Audio Coding 3
Mode extension                           : CM (complete main)
Codec ID                                 : A_AC3
Duration                                 : 1h 28mn
Bit rate mode                            : Constant
Bit rate                                 : 192 Kbps
Channel(s)                               : 2 channels
Channel positions                        : Front: L R
Sampling rate                            : 48.0 KHz
Bit depth                                : 16 bits
Compression mode                         : Lossy
Stream size                              : 122 MiB (4%)
Language                                 : Russian
Default                                  : Yes
Forced                                   : Yes

Audio #2
ID                                       : 3
Format                                   : AC-3
Format/Info                              : Audio Coding 3
Mode extension                           : CM (complete main)
Codec ID                                 : A_AC3
Duration                                 : 1h 28mn
Bit rate mode                            : Constant
Bit rate                                 : 384 Kbps
Channel(s)                               : 6 channels
Channel positions                        : Front: L C R, Side: L R, LFE
Sampling rate                            : 48.0 KHz
Bit depth                                : 16 bits
Compression mode                         : Lossy
Stream size                              : 244 MiB (8%)
Language                                 : English
Default                                  : No
Forced                                   : No

Text
ID                                       : 4
Format                                   : UTF-8
Codec ID                                 : S_TEXT/UTF8
Codec ID/Info                            : UTF-8 Plain Text
Language                                 : English
Default                                  : No
Forced                                   : No

Menu
00:00:00.000                             : en:1
00:11:23.000                             : en:2
00:21:00.000                             : en:3
00:29:29.000                             : en:4
00:39:43.000                             : en:5
00:50:27.000                             : en:6
01:00:29.000                             : en:7
01:09:25.000                             : en:8
01:19:01.000                             : en:9

скриншот   скриншот   скриншот  
pb.wtf



Скачать Скажи через торрент http://i2.imageban.ru/out/2015/08/03/1bc3dff64f14d2d9d31603b13d52e54b.jpg Скачать фильм Скажи через торрент бесплантно в хорошем качестве Описание: Мелкому мошеннику Этану Теллу удается сорвать куш в миллион долларов и оставить других с носом. Но полиция ловит его и после ... 9.9 10 10
Торрент: Зарегистрирован [2015-08-03 05:30] · скачан: 203 раз
Статус: √ проверено
Размер: 2.85 GB
Как cкачать? Как скачать Скажи через торрент | qTorrent

% Раздел Тема Автор DL S | L
Зарубежные сериалы [ 16.91 GB ] Расскажи мне сказку / Tell Me a Story / Сезон: 2 / Серии: 1-10 из 10 [2019 WEB-DL 720p] 3xMVO bober100 Скачать
1 | 0
Зарубежные сериалы [ 8.6 GB ] Расскажи мне сказку / Tell Me a Story / Сезон: 2 / Серии: 1-10 из 10 [2019 WEB-DLRip] MVO [TVShows] bober100 Скачать
1 | 0
Зарубежные сериалы [ 15.13 GB ] Расскажи мне сказку / Tell Me a Story / Сезон: 2 / Серии: 1-10 из 10 [2019 WEB-DL 720p] MVO [TVShows] bober100 Скачать
1 | 0
Зарубежные сериалы [ 27.89 GB ] Расскажи мне сказку / Tell Me a Story / Сезон: 2 / Серии: 1-10 из 10 [2019 WEB-DL 1080p] MVO [TVShows] bober100 Скачать
1 | 0
Зарубежные сериалы [ 26.74 GB ] Расскажи мне сказку / Tell Me a Story / Сезон: 2 / Серии: 1-10 из 10 [2019 WEB-DL 1080p] MVO [Jaskier] bober100 Скачать
1 | 0
Зарубежные сериалы [ 13.45 GB ] Расскажи мне сказку / Tell Me a Story / Сезон: 2 / Серии: 1-10 из 10 [2019 WEB-DL 720p] MVO [Jaskier] bober100 Скачать
1 | 0
Зарубежные сериалы [ 6 GB ] Расскажи мне сказку / Tell Me a Story / Сезон: 2 / Серии: 1-10 из 10 [2019 WEB-DLRip] MVO [Jaskier] bober100 Скачать
1 | 0

28-11-2019 20:33  

Отключить всю рекламу на сайте

03-08-2015 07:45 Скажи Скачать торрент  

Цитата:

Скажи

Не скажу :sarcastic_blum:pb.wtf



03-08-2015 09:18 Скажи Скачать торрент  

Цитата:

Скажи / Tell (Дж.М.Р. Люна) [2014, боевик, драма, криминал, WEB-DL 720p, Профессиональный (многоголосый)]

очень понравился,ставлю 10.pb.wtf



    Дорогой пользователь! Огромная просьба, поблагодарите релизера, оцените раздачу и оставьте свои комментарий, если Вы скачали Скажи через торрент бесплатно! Внесите свою лепту в развитие PiratBit!
    Комментировать посты могут только пользователи прошедшие не сложную регистрацию
    Показать сообщения:    

    Скажи через торрент
    Скачать бесплатно Скажи
    Скажи скачать торрент
    Скажи смотреть онлайн
    Cкачать фильм Скажи бесплатно
    Скажи скачать торрент в хорошем качестве
    Скажи смотреть онлайн бесплатно в хорошем качестве


    Вы не можете начинать темы
    Вы не можете отвечать на сообщения
    Вы не можете редактировать свои сообщения
    Вы не можете удалять свои сообщения
    Вы не можете голосовать в опросах
    Вы не можете прикреплять файлы к сообщениям
    Вы можете скачивать файлы