2 сезон

iTunes

MVO

1

2 сезон

iTunes

iTunes

1 сезон

RePack

30

Новинка

ВАЖНО

ИГРА 18+

pack

RePack

MK11
pack

Легкие деньги

RePack

jed

RePack

fifa19

RePack

RDR2

RePack

NEED FOR SPEED™ PAYBACK

4 сезон

9 сезон

Бесстыжие 9 сезон

Все сериалы

все сериалы на PB.wtf

RePack

FAR CRY 5

Anonymous, доброй ночи, мы не успеваем собрать деньги на оплату серверов за декабрь и январь, помогите нам пожалуйста в это трудное время. В качестве благодарности мы отключим Вам всю рекламу на сайте (укажите свой ник в строку Ваше имя)!

×
  
Magnet ссылка

Алан Партридж / Alan Partridge: Alpha Papa (Деклан Лауни) [2013, комедия, HDRip, Профессиональный (многоголосый)] pb.wtf

Алан Партридж через торрент pb.wtf

Размер: 1.37 GB | Добавлен: 5 лет 5 мес. назад | Торрент скачан:258 раз
Скачать  

04-08-2015 08:22 Алан Партридж Скачать торрент  

Алан Партридж / Alan Partridge: Alpha Papa


Год выпуска: 2013
Страна: Великобритания, Франция
Жанр: комедия

Продолжительность: 01:30:10
Перевод: Профессиональный (многоголосый) [SDI media]
Режиссер: Деклан Лауни
В ролях:

Стив Куган (Alan Partridge / Jason Statham / Jason Bourne / Jason Argonaut), Колм Мини (Pat Farrell), Тим Ки (Side Kick Simon), Карл Теобалд (Greg Frampton), Найджел Линдсэй (Jason Tresswell), Фелисити Монтегю (Lynn Benfield), Дастин Демри-Бёрнс (Danny Sinclair), Молли Сеймур (Danny's Posse), Adam Langstaff (Danny's Posse), Аарон Хеффернан (Danny's Posse), Саймон Гринхолл (Michael), Фил Корнуэлл (Dave Clifton)

Описание:
Новый медиа-конгломерат подминает под себя радиостанцию Алана Партриджа, что приводит к череде событий, ведущих героя, которому теперь грозит опасность, к сотрудничеству с полицией.
Рейтинг:

MPAA: R - Лицам до 17 лет обязательно присутствие взрослого

Качество: HDRip
Формат: AVI
Видео кодек: XviD
Аудио кодек: AC3
Видео: XviD, 720x304 (2.35:1), 1967 kbps, 23,976 fps, 0,375 bpp
Аудио: AC3 / 2.0 / 48 kHz / 192 kbps / 16 bit

Код:

General
Complete name                            : E:\Films\Alan.Patridzh.2013.P.HDRip.avi
Format                                   : AVI
Format/Info                              : Audio Video Interleave
File size                                : 1.37 GiB
Duration                                 : 1h 30mn
Overall bit rate                         : 2 169 Kbps
Writing application                      : VirtualDubMod 1.5.10.2 (build 2540/release)
Writing library                          : VirtualDubMod build 2540/release

Video
ID                                       : 0
Format                                   : MPEG-4 Visual
Format profile                           : Advanced Simple@L5
Format settings, BVOP                    : 2
Format settings, QPel                    : No
Format settings, GMC                     : No warppoints
Format settings, Matrix                  : Default (MPEG)
Codec ID                                 : XVID
Codec ID/Hint                            : XviD
Duration                                 : 1h 30mn
Bit rate                                 : 1 968 Kbps
Width                                    : 720 pixels
Height                                   : 304 pixels
Display aspect ratio                     : 2.35:1
Frame rate                               : 23.976 fps
Color space                              : YUV
Chroma subsampling                       : 4:2:0
Bit depth                                : 8 bits
Scan type                                : Progressive
Compression mode                         : Lossy
Bits/(Pixel*Frame)                       : 0.375
Stream size                              : 1.24 GiB (91%)
Writing library                          : XviD 1.2.1 (UTC 2008-12-04)

Audio
ID                                       : 1
Format                                   : AC-3
Format/Info                              : Audio Coding 3
Mode extension                           : CM (complete main)
Codec ID                                 : 2000
Duration                                 : 1h 30mn
Bit rate mode                            : Constant
Bit rate                                 : 192 Kbps
Channel(s)                               : 2 channels
Channel positions                        : Front: L R
Sampling rate                            : 48.0 KHz
Bit depth                                : 16 bits
Compression mode                         : Lossy
Stream size                              : 124 MiB (9%)
Alignment                                : Split accross interleaves
Interleave, duration                     : 42 ms (1.00 video frame)
Interleave, preload duration             : 500 ms



pb.wtf



Скачать Алан Партридж через торрент http://i5.imageban.ru/out/2015/08/04/ca17a6ca6e0495d30e41e854fc370974.jpg Скачать фильм Алан Партридж через торрент бесплантно в хорошем качестве Описание: Новый медиа-конгломерат подминает под себя радиостанцию Алана Партриджа, что приводит к череде событий, ведущих героя, которому ... 9.6 10 9
Торрент: Зарегистрирован [2015-08-04 08:22] · скачан: 258 раз
Статус: √ проверено
Размер: 1.37 GB
Как cкачать? Как скачать Алан Партридж через торрент | UTorrent

% Раздел Тема Автор DL S | L
Фильмы (Blu-ray, BD-Remux, HDDVD) [ 23.6 GB ] Алан Партридж / Alan Partridge: Alpha Papa [2013 BD Remux Любительский Ворон Скачать
1 | 0
Фильмы 2013 [DVDrip, WEB-DLRip, HDrip] [ 2.19 GB ] Алан Партридж / Alan Partridge: Alpha Papa [2013 BDRip-AVC] DVO + Original + Sub potroks Скачать
1 | 0
Фильмы 2013 [DVDrip, WEB-DLRip, HDrip] [ 2.04 GB ] Алан Партридж / Alan Partridge: Alpha Papa [2013 HDRip Любительский двухголосый] coc900 Скачать
1 | 0

28-11-2019 20:33  

Отключить всю рекламу на сайте

    Дорогой пользователь! Огромная просьба, поблагодарите релизера, оцените раздачу и оставьте свои комментарий, если Вы скачали Алан Партридж через торрент бесплатно! Внесите свою лепту в развитие PiratBit!
    Комментировать посты могут только пользователи прошедшие не сложную регистрацию
    Показать сообщения:    

    Алан Партридж через торрент
    Скачать бесплатно Алан Партридж
    Алан Партридж скачать торрент
    Алан Партридж смотреть онлайн
    Cкачать фильм Алан Партридж бесплатно
    Алан Партридж скачать торрент в хорошем качестве
    Алан Партридж смотреть онлайн бесплатно в хорошем качестве


    Вы не можете начинать темы
    Вы не можете отвечать на сообщения
    Вы не можете редактировать свои сообщения
    Вы не можете удалять свои сообщения
    Вы не можете голосовать в опросах
    Вы не можете прикреплять файлы к сообщениям
    Вы можете скачивать файлы